<?xml version="1.0" standalone="no"?>
<!DOCTYPE svg PUBLIC "-//W3C//DTD SVG 1.1//EN" "http://www.w3.org/Graphics/SVG/1.1/DTD/svg11.dtd" >
<svg xmlns="http://www.w3.org/2000/svg" xmlns:xlink="http://www.w3.org/1999/xlink" version="1.1">
<metadata>
Created by FontForge 20190801 at Tue Dec 22 02:30:42 2020
 By root
Copyright \(c\) 2020 by Nick Shinn. Published by Shinn Type Foundry. All rights reserved.
</metadata>
<defs>
<font id="Aptly-Medium" horiz-adv-x="468" >
  <font-face 
    font-family="Aptly Medium"
    font-weight="500"
    font-stretch="normal"
    units-per-em="1000"
    panose-1="2 0 0 0 0 0 0 0 0 0"
    ascent="829"
    descent="-171"
    x-height="635"
    cap-height="825"
    bbox="-60 -171 1056 1032"
    underline-thickness="40"
    underline-position="-96"
    stemh="112"
    stemv="115"
    unicode-range="U+0020-FB02"
  />
<missing-glyph horiz-adv-x="533" 
d="M453 -165h-373c-13 0 -23 10 -23 23v1152c0 15 7 22 23 22h373c13 0 23 -10 23 -23v-1152c0 -15 -7 -22 -23 -22zM391 -73v1012c0 13 -9 23 -23 23h-202c-13 0 -24 -9 -24 -22v-1012c0 -13 9 -23 23 -23h202c14 0 24 9 24 22z" />
    <glyph glyph-name="fi" unicode="fi" horiz-adv-x="565" 
d="M56 635h26c13 0 22 9 22 22v21c0 90 47 147 145 147h25c19 0 32 -15 32 -32v-43c0 -19 -15 -32 -33 -32h-16c-27 0 -42 -18 -42 -47v-14c0 -12 10 -22 24 -22h35c16 0 32 -11 32 -29v-44c0 -25 -21 -33 -32 -33h-35c-14 0 -24 -11 -24 -24v-472c0 -21 -18 -33 -32 -33
h-47c-19 0 -32 15 -32 33v473c0 13 -9 23 -22 23h-26c-17 0 -32 14 -32 33v41c0 12 10 32 32 32zM397 32v571c0 18 14 32 32 32h48c18 0 32 -14 32 -32v-571c0 -18 -14 -32 -32 -32h-48c-18 0 -32 14 -32 32zM397 744v49c0 18 14 32 32 32h48c18 0 32 -14 32 -32v-49
c0 -18 -14 -32 -32 -32h-48c-18 0 -32 14 -32 32z" />
    <glyph glyph-name="fl" unicode="fl" horiz-adv-x="565" 
d="M56 635h26c13 0 22 9 22 22v21c0 90 47 147 145 147h25c19 0 32 -15 32 -32v-43c0 -19 -15 -32 -33 -32h-16c-27 0 -42 -18 -42 -47v-14c0 -12 10 -22 24 -22h35c16 0 32 -11 32 -29v-44c0 -25 -21 -33 -32 -33h-35c-14 0 -24 -11 -24 -24v-472c0 -21 -18 -33 -32 -33
h-47c-19 0 -32 15 -32 33v473c0 13 -9 23 -22 23h-26c-17 0 -32 14 -32 33v41c0 12 10 32 32 32zM509 793v-761c0 -18 -14 -32 -32 -32h-48c-18 0 -32 14 -32 32v761c0 18 14 32 32 32h48c18 0 32 -14 32 -32z" />
    <glyph glyph-name=".notdef" horiz-adv-x="533" 
d="M453 -165h-373c-13 0 -23 10 -23 23v1152c0 15 7 22 23 22h373c13 0 23 -10 23 -23v-1152c0 -15 -7 -22 -23 -22zM391 -73v1012c0 13 -9 23 -23 23h-202c-13 0 -24 -9 -24 -22v-1012c0 -13 9 -23 23 -23h202c14 0 24 9 24 22z" />
    <glyph glyph-name="NULL" horiz-adv-x="0" 
 />
    <glyph glyph-name="NULL" horiz-adv-x="0" 
 />
    <glyph glyph-name="space" unicode=" " horiz-adv-x="220" 
 />
    <glyph glyph-name="onequarter" unicode="&#xbc;" horiz-adv-x="936" 
d="M265 52l209 754c5 19 15 26 32 26h31c19 0 28 -9 28 -27c0 -7 -3 -21 -7 -37l-205 -742c-6 -20 -15 -26 -32 -26h-32c-19 0 -28 9 -28 27c0 5 0 12 4 25zM149 307v341c0 13 -10 23 -23 23h-34c-18 0 -29 13 -29 27v34c0 15 11 27 29 27h11c32 0 39 6 46 31l5 18
c4 14 14 24 30 24h30c20 0 31 -14 31 -31v-480c0 -23 -6 -45 -31 -45h-34c-18 0 -31 13 -31 31zM794 265v-29c0 -26 9 -30 25 -30c18 0 29 -12 29 -27v-40c0 -14 -11 -27 -31 -27c-13 0 -23 -11 -23 -24v-48c0 -25 -9 -40 -30 -40h-35c-23 0 -31 21 -31 40v49
c0 13 -9 23 -23 23h-116c-32 0 -39 17 -39 38v16c0 25 8 59 19 97l70 254c8 30 21 34 34 34h25c22 0 39 -8 39 -30c0 -5 -2 -14 -11 -45l-58 -210c-8 -28 -10 -33 -10 -38c0 -12 9 -22 23 -22h24c18 0 23 10 23 30v29c0 21 6 39 31 39h35c21 0 30 -15 30 -39z" />
    <glyph glyph-name="onesuperior" unicode="&#xb9;" horiz-adv-x="288" 
d="M122 307v334c0 13 -10 23 -23 23h-40c-18 0 -29 13 -29 27v34c0 15 11 27 29 27h17c32 0 39 6 46 31l5 18c4 14 14 24 30 24h30c20 0 31 -14 31 -31v-473c0 -23 -6 -45 -31 -45h-34c-18 0 -31 13 -31 31z" />
    <glyph glyph-name="threequarters" unicode="&#xbe;" horiz-adv-x="936" 
d="M330 50l209 751c5 19 15 26 32 26h31c19 0 28 -9 28 -27c0 -7 -3 -21 -7 -37l-205 -739c-6 -20 -15 -26 -32 -26h-32c-19 0 -28 9 -28 27c0 5 0 12 4 25zM143 523v36c0 17 12 29 30 29h25c32 0 46 26 46 60v34c0 29 -11 59 -46 59c-22 0 -46 -16 -46 -49v-6
c0 -21 -13 -33 -31 -33h-35c-17 0 -30 14 -30 31v4c0 87 62 144 141 144c86 0 144 -61 144 -145v-18c0 -52 -10 -76 -34 -97l-9 -8c-5 -5 -7 -10 -7 -15s2 -10 7 -15l9 -8c25 -24 34 -50 34 -105v-9c0 -81 -56 -142 -144 -142c-81 0 -141 57 -141 143v15c0 18 12 30 30 30
h35c57 0 6 -98 77 -98c31 0 46 25 46 60v15c0 13 -1 58 -46 58h-25c-19 0 -30 11 -30 30zM839 265v-29c0 -26 9 -30 25 -30c18 0 29 -12 29 -27v-40c0 -14 -11 -27 -31 -27c-13 0 -23 -11 -23 -24v-48c0 -25 -9 -40 -30 -40h-35c-23 0 -31 21 -31 40v49c0 13 -9 23 -23 23
h-116c-32 0 -39 17 -39 38v16c0 25 8 59 19 97l70 254c8 30 21 34 34 34h25c22 0 39 -8 39 -30c0 -5 -2 -14 -11 -45l-58 -210c-8 -28 -10 -33 -10 -38c0 -12 9 -22 23 -22h24c18 0 23 10 23 30v29c0 21 6 39 31 39h35c21 0 30 -15 30 -39z" />
    <glyph glyph-name="threesuperior" unicode="&#xb3;" horiz-adv-x="400" 
d="M143 523v36c0 17 12 29 30 29h25c32 0 46 26 46 60v34c0 29 -11 59 -46 59c-22 0 -46 -16 -46 -49v-6c0 -21 -13 -33 -31 -33h-35c-17 0 -30 14 -30 31v4c0 87 62 144 141 144c86 0 144 -61 144 -145v-18c0 -52 -10 -76 -34 -97l-9 -8c-5 -5 -7 -10 -7 -15s2 -10 7 -15
l9 -8c25 -24 34 -50 34 -105v-9c0 -81 -56 -142 -144 -142c-81 0 -141 57 -141 143v15c0 18 12 30 30 30h35c57 0 6 -98 77 -98c31 0 46 25 46 60v15c0 13 -1 58 -46 58h-25c-19 0 -30 11 -30 30z" />
    <glyph glyph-name="twosuperior" unicode="&#xb2;" horiz-adv-x="397" 
d="M343 690c0 -43 -21 -101 -54 -141l-55 -67c-38 -47 -56 -66 -55 -82c0 -13 9 -23 23 -23h99c23 0 41 -8 41 -31v-25c0 -26 -10 -39 -30 -39h-226c-18 0 -30 13 -30 37v9c0 70 38 130 82 181l50 58c33 39 58 75 58 112v6c0 29 -13 56 -46 56c-23 0 -44 -16 -46 -48v-14
c0 -21 -13 -34 -31 -34h-34c-19 0 -31 14 -31 31v9c0 89 61 147 141 147c79 0 144 -53 144 -142z" />
    <glyph glyph-name="brokenbar" unicode="&#xa6;" horiz-adv-x="500" 
d="M300 844v-324c0 -18 -12 -30 -30 -30h-40c-18 0 -30 12 -30 30v324c0 19 12 31 30 31h40c18 0 30 -12 30 -31zM300 304v-324c0 -18 -12 -30 -30 -30h-40c-18 0 -30 12 -30 30v324c0 19 12 31 30 31h40c18 0 30 -12 30 -31z" />
    <glyph glyph-name="minus" unicode="&#x2212;" horiz-adv-x="549" 
d="M92 399h364c18 0 32 -14 32 -32v-44c0 -18 -14 -32 -32 -32h-364c-18 0 -32 14 -32 32v44c0 18 14 32 32 32z" />
    <glyph glyph-name="multiply" unicode="&#xd7;" horiz-adv-x="549" 
d="M190 347c0 5 -4 12 -13 21l-85 82c-8 8 -12 17 -12 25c0 9 4 17 10 23l29 30c6 7 14 10 22 10c10 0 21 -5 29 -13l78 -78c10 -10 16 -15 26 -15c9 0 16 5 26 15l78 78c8 8 19 13 29 13c8 0 16 -3 22 -10l29 -30c6 -6 10 -14 10 -23c0 -8 -4 -17 -12 -25l-85 -82
c-6 -6 -13 -13 -13 -21c0 -7 7 -15 13 -21l85 -82c8 -8 12 -17 12 -25c0 -9 -4 -17 -10 -23l-29 -30c-6 -7 -14 -10 -22 -10c-10 0 -21 5 -29 13l-78 78c-10 10 -16 15 -26 15s-16 -5 -26 -15l-78 -78c-8 -8 -19 -13 -29 -13c-8 0 -16 3 -22 10l-29 30c-6 6 -10 14 -10 23
c0 8 4 17 12 25l85 82c11 10 13 16 13 21z" />
    <glyph glyph-name="exclam" unicode="!" horiz-adv-x="240" 
d="M178 686c-3 -154 -5 -308 -8 -461c0 -18 -15 -32 -32 -32h-34c-18 0 -32 14 -32 32c-3 153 -6 307 -8 461v107c0 18 14 32 32 32h50c18 0 32 -14 32 -32v-107zM179 86v-54c0 -18 -14 -32 -32 -32h-54c-18 0 -32 14 -32 32v54c0 18 14 32 32 32h54c18 0 32 -14 32 -32z
" />
    <glyph glyph-name="quotedbl" unicode="&#x22;" horiz-adv-x="430" 
d="M134 599h-25c-15 0 -26 11 -28 25c-4 32 -12 134 -12 171c0 22 13 30 35 30h35c22 0 35 -8 35 -30c0 -37 -8 -139 -12 -171c-2 -14 -13 -25 -28 -25zM320 599h-25c-15 0 -26 11 -28 25c-4 32 -12 134 -12 171c0 22 13 30 35 30h35c22 0 35 -8 35 -30
c0 -37 -8 -139 -12 -171c-2 -14 -13 -25 -28 -25z" />
    <glyph glyph-name="numbersign" unicode="#" horiz-adv-x="549" 
d="M233 472l-14 -104c-1 -9 -1 -10 -1 -12c0 -13 8 -21 22 -21h52c12 0 22 6 24 20l14 104c1 9 1 11 1 13c0 12 -8 21 -22 21h-52c-12 0 -22 -6 -24 -21zM426 472c-5 -38 -15 -80 -15 -118c0 -12 8 -19 22 -19h22c16 0 29 -13 29 -30v-30c0 -22 -18 -30 -39 -30h-28
c-12 0 -22 -6 -24 -20l-26 -199c-3 -17 -19 -26 -33 -26h-29c-21 0 -31 12 -31 33c0 6 1 13 2 21l22 169c0 14 -8 22 -22 22h-52c-12 0 -22 -6 -24 -20l-26 -199c-4 -18 -15 -26 -33 -26h-29c-21 0 -31 12 -31 33c0 6 1 12 2 20l18 140c2 13 4 24 4 30c0 14 -9 22 -22 22
h-17c-18 0 -37 7 -37 30v29c0 23 18 31 40 31h30c12 0 22 6 24 20c4 38 15 81 15 117c0 12 -8 21 -22 21h-22c-16 0 -29 11 -29 28v30c0 23 17 30 39 30h28c12 0 22 6 24 21l26 197c2 18 16 28 33 28h30c19 0 28 -8 30 -24c0 -17 -13 -111 -20 -170c-2 -11 -4 -24 -4 -29
c0 -13 8 -23 22 -23h52c12 0 22 6 24 21l26 197c2 18 16 28 33 28h28c22 0 32 -10 32 -31c0 -7 -1 -16 -2 -25l-18 -138c-2 -11 -4 -24 -4 -29c0 -13 8 -23 22 -23h17c18 0 37 -7 37 -29v-30c0 -23 -17 -29 -40 -29h-30c-12 0 -22 -6 -24 -21z" />
    <glyph glyph-name="dollar" unicode="$" 
d="M52 213v22c0 18 15 32 33 32h48c18 0 34 -14 34 -32v-21c0 -42 16 -83 66 -83c39 0 69 25 69 84v20c0 62 -20 82 -57 103l-83 46c-81 46 -110 97 -110 178v49c0 80 33 137 98 168l10 4c9 4 16 11 16 20v45c0 18 14 32 32 32h50c18 0 32 -14 32 -32v-45c0 -9 7 -16 16 -20
l10 -4c65 -31 98 -88 98 -168v-13c0 -18 -15 -32 -34 -32h-48c-19 0 -33 14 -33 32v12c0 59 -29 84 -66 84c-49 0 -67 -35 -67 -101v-5c0 -62 12 -80 66 -109l72 -39c74 -40 112 -76 112 -190v-37c0 -80 -33 -137 -98 -168l-10 -4c-9 -4 -16 -11 -16 -20v-55
c0 -18 -14 -32 -32 -32h-50c-18 0 -32 14 -32 32v55c0 9 -7 16 -16 20l-10 4c-65 31 -100 88 -100 168z" />
    <glyph glyph-name="percent" unicode="%" horiz-adv-x="778" 
d="M190 542c28 0 44 19 44 65v84c0 42 -20 58 -44 58s-44 -16 -44 -58v-84c0 -46 16 -65 44 -65zM190 461c-76 0 -138 48 -138 146v77c0 99 63 148 138 148s138 -49 138 -148v-77c0 -98 -62 -146 -138 -146zM588 74c28 0 44 19 44 65v84c0 42 -20 58 -44 58s-44 -16 -44 -58
v-84c0 -46 16 -65 44 -65zM588 -7c-76 0 -138 48 -138 146v77c0 99 63 148 138 148s138 -49 138 -148v-77c0 -98 -62 -146 -138 -146zM241 23l366 744c7 14 9 24 9 32c0 18 -10 29 -30 29h-14c-19 0 -28 -10 -35 -27l-362 -738c-8 -17 -12 -29 -12 -38c0 -22 18 -26 24 -26
h17c20 0 29 7 37 24z" />
    <glyph glyph-name="ampersand" unicode="&#x26;" horiz-adv-x="515" 
d="M277 362h-42c-29 0 -64 -19 -68 -75v-109c5 -57 38 -74 68 -74h42c13 0 23 10 23 22v213c0 13 -10 23 -23 23zM377 0h-146c-99 0 -179 64 -179 182v70c0 63 7 105 42 140l6 6c6 6 8 11 8 16s-3 9 -8 15l-8 9c-30 33 -40 73 -40 130v72c0 93 59 185 180 185h80
c20 0 34 -14 34 -32v-47c0 -17 -15 -32 -32 -32h-79c-35 0 -68 -23 -68 -90v-59c0 -58 17 -99 69 -99h41c13 0 23 11 23 24v35c0 14 9 29 32 29h51c23 0 32 -16 32 -30v-34c0 -13 9 -24 23 -24h17c17 0 32 -14 32 -32v-41c0 -18 -14 -32 -32 -32h-17c-14 0 -23 -10 -23 -23
v-296c0 -23 -15 -42 -38 -42z" />
    <glyph glyph-name="quotesingle" unicode="'" horiz-adv-x="222" 
d="M123 599h-25c-15 0 -26 11 -28 25c-4 32 -12 134 -12 171c0 22 13 30 35 30h35c22 0 35 -8 35 -30c0 -37 -8 -139 -12 -171c-2 -14 -13 -25 -28 -25z" />
    <glyph glyph-name="parenleft" unicode="(" horiz-adv-x="316" 
d="M148 734v-699c0 -47 4 -68 16 -83c14 -18 37 -32 68 -33h9c16 0 32 -14 32 -32v-20c0 -18 -14 -32 -32 -32h-13c-60 0 -107 17 -138 49c-30 32 -47 73 -47 149v704c0 78 18 120 51 151c30 30 76 47 134 47h13c18 0 32 -14 32 -32v-20c0 -18 -16 -32 -32 -32h-9
c-33 0 -54 -15 -68 -33c-12 -15 -16 -37 -16 -84z" />
    <glyph glyph-name="parenright" unicode=")" horiz-adv-x="316" 
d="M167 35v699c0 47 -4 69 -16 84c-13 18 -35 31 -68 32l-8 1c-17 0 -32 14 -32 32v20c0 18 14 32 32 32h13c60 0 108 -18 138 -51c30 -31 47 -72 47 -147v-704c0 -76 -17 -116 -47 -148s-78 -50 -138 -50h-13c-18 0 -32 14 -32 32v20c0 18 15 32 32 32h8c32 1 55 15 68 33
c12 15 16 36 16 83z" />
    <glyph glyph-name="asterisk" unicode="*" horiz-adv-x="457" 
d="M231 502h-5c-16 0 -27 8 -27 27v46c0 14 -9 22 -20 22c-8 0 -14 -3 -21 -7l-32 -19c-5 -3 -10 -4 -15 -4c-15 0 -28 22 -28 35c0 8 3 14 14 21l41 24c9 6 12 12 12 20s-3 14 -12 20l-41 24c-11 7 -14 13 -14 21c0 13 13 35 28 35c5 0 10 -1 15 -4l32 -19
c7 -4 13 -7 21 -7c11 0 20 8 20 22v46c0 19 11 27 27 27h5c16 0 27 -8 27 -27v-46c0 -14 9 -22 20 -22c8 0 14 3 21 7l32 19c5 3 10 4 15 4c15 0 28 -22 28 -35c0 -8 -3 -14 -14 -21l-41 -24c-9 -6 -12 -12 -12 -20s3 -14 12 -20l41 -24c11 -7 14 -13 14 -21
c0 -13 -13 -35 -28 -35c-5 0 -10 1 -15 4l-32 19c-7 4 -13 7 -21 7c-11 0 -20 -8 -20 -22v-46c0 -19 -11 -27 -27 -27z" />
    <glyph glyph-name="plus" unicode="+" horiz-adv-x="549" 
d="M219 146v124c0 14 -10 21 -23 22h-107c-15 0 -33 9 -33 32v42c0 18 14 32 32 32h108c13 1 23 8 23 22v124c0 17 8 32 32 32h47c18 0 32 -14 32 -32v-123c0 -14 10 -22 23 -23h107c22 0 33 -14 33 -32v-42c0 -18 -14 -32 -32 -32h-108c-13 -1 -23 -8 -23 -22v-124
c0 -16 -8 -32 -32 -32h-47c-18 0 -32 14 -32 32z" />
    <glyph glyph-name="comma" unicode="," horiz-adv-x="228" 
d="M79 0l-5 1c-13 3 -19 13 -19 30v56c0 18 8 32 31 32h56c22 0 32 -17 32 -38v-76c0 -51 -19 -86 -42 -111c-21 -23 -40 -36 -56 -36s-37 19 -37 37c0 7 3 16 21 31l6 5c20 15 29 33 30 48c0 10 -2 18 -17 21z" />
    <glyph glyph-name="hyphen" unicode="-" horiz-adv-x="326" 
d="M81 409h163c18 0 32 -14 32 -32v-61c0 -18 -14 -32 -32 -32h-163c-18 0 -32 14 -32 32v61c0 18 14 32 32 32z" />
    <glyph glyph-name="period" unicode="." horiz-adv-x="228" 
d="M55 32v55c0 18 14 32 32 32h53c18 0 32 -14 32 -32v-55c0 -18 -14 -32 -32 -32h-53c-18 0 -32 14 -32 32z" />
    <glyph glyph-name="slash" unicode="/" horiz-adv-x="348" 
d="M312 800l-202 -826c-4 -16 -16 -27 -34 -27h-18c-19 0 -29 8 -30 26c0 12 3 20 8 40l202 826c4 16 16 27 34 27h18c19 0 29 -8 30 -26c0 -12 -3 -20 -8 -40z" />
    <glyph glyph-name="zero" unicode="0" 
d="M167 638v-452c0 -59 28 -85 67 -85c36 0 66 22 66 85v452c0 63 -30 86 -66 86c-40 0 -67 -26 -67 -86zM415 640v-456c0 -126 -77 -191 -181 -191c-99 0 -182 61 -182 191v456c0 129 81 192 182 192c99 0 181 -63 181 -192z" />
    <glyph glyph-name="one" unicode="1" horiz-adv-x="320" 
d="M239 800v-768c0 -18 -14 -32 -32 -32h-50c-18 0 -32 14 -32 32v590c0 13 -10 21 -24 21h-43c-18 0 -33 14 -33 32v44c0 18 15 32 33 32h22c36 0 42 23 48 45c5 19 11 36 36 36h43c18 0 32 -14 32 -32z" />
    <glyph glyph-name="two" unicode="2" horiz-adv-x="462" 
d="M388 0h-304c-18 0 -32 14 -32 32v64c0 102 63 182 138 280l39 51c52 68 71 114 71 183v28c0 59 -28 86 -66 86c-40 0 -67 -26 -67 -86v-39c0 -18 -14 -32 -32 -32h-50c-18 0 -33 14 -33 32v47c0 124 82 186 182 186c96 0 181 -58 181 -184v-41c0 -95 -39 -171 -94 -244
l-55 -73c-63 -83 -82 -131 -82 -150v-7c1 -13 7 -21 23 -21h181c18 0 32 -14 32 -32v-48c0 -18 -14 -32 -32 -32z" />
    <glyph glyph-name="three" unicode="3" horiz-adv-x="462" 
d="M231 359h-39c-18 0 -32 14 -32 32v48c0 17 14 32 32 32h38c33 0 70 19 70 89v65c0 61 -18 99 -66 99c-56 0 -66 -45 -66 -107v-9c0 -22 -10 -41 -32 -41h-51c-18 0 -32 14 -32 32v47c0 120 75 186 181 186c108 0 181 -79 181 -184v-82c0 -58 -10 -99 -41 -131l-8 -8
c-6 -6 -8 -11 -8 -16s3 -9 8 -15l8 -9c31 -35 41 -76 41 -137v-74c0 -111 -72 -183 -182 -183c-97 0 -181 59 -181 185v57c0 18 14 32 32 32h51c23 0 32 -21 32 -42v-19c0 -57 8 -104 66 -104c38 0 67 26 67 86v71c0 77 -31 100 -69 100z" />
    <glyph glyph-name="four" unicode="4" horiz-adv-x="478" 
d="M384 156v-124c0 -18 -14 -32 -32 -32h-50c-18 0 -33 14 -33 32v124c0 13 -9 23 -23 23h-164c-30 0 -37 19 -37 40v24c0 19 4 47 15 97l18 81c27 120 55 246 83 367c7 31 15 44 40 44h45c19 0 34 -10 34 -31c0 -18 -4 -44 -67 -304l-30 -124c-9 -35 -13 -57 -13 -67
c1 -13 10 -21 25 -21h48c13 0 26 3 26 24v81c0 22 6 46 33 46h50c26 0 32 -22 32 -46v-80c0 -13 9 -25 23 -25h4c21 0 38 -9 38 -32v-42c0 -23 -17 -32 -38 -32h-3c-14 0 -24 -10 -24 -23z" />
    <glyph glyph-name="five" unicode="5" horiz-adv-x="460" 
d="M167 225v-19c0 -58 8 -105 67 -105c38 0 66 24 66 85v113c0 79 -17 111 -66 111c-15 0 -27 -4 -39 -9l-16 -7c-20 -9 -29 -12 -49 -12h-14c-23 0 -42 15 -42 42v355c0 22 6 46 32 46h252c18 0 32 -14 32 -32v-48c0 -18 -14 -32 -32 -32h-147c-13 0 -23 -10 -23 -23v-80
c0 -25 -1 -47 -1 -65c0 -25 2 -37 22 -37c10 0 23 4 48 4c91 0 158 -63 158 -160v-176c0 -120 -80 -183 -181 -183c-100 0 -182 62 -182 185v57c0 18 14 32 32 32h51c23 0 32 -21 32 -42z" />
    <glyph glyph-name="six" unicode="6" horiz-adv-x="465" 
d="M167 349v-163c0 -59 28 -85 67 -85c36 0 66 22 66 85v111c0 51 -34 75 -68 75h-42c-13 0 -23 -10 -23 -23zM300 599v39c0 61 -28 86 -66 86c-39 0 -67 -26 -67 -86v-137c0 -13 9 -23 23 -23h44c109 0 181 -65 181 -202v-98c0 -123 -82 -185 -182 -185
c-97 0 -181 59 -181 183v472c0 115 77 184 181 184c97 0 182 -58 182 -186v-47c0 -18 -14 -32 -32 -32h-50c-18 0 -33 14 -33 32z" />
    <glyph glyph-name="seven" unicode="7" horiz-adv-x="422" 
d="M379 793v-51c0 -20 -5 -55 -31 -168l-123 -542c-5 -21 -17 -32 -37 -32h-48c-18 0 -33 13 -33 32c0 21 24 126 49 235l38 164c21 91 58 237 58 264c0 12 -9 18 -24 18h-170c-18 0 -33 14 -33 32v47c0 18 15 33 33 33h289c18 0 32 -14 32 -32z" />
    <glyph glyph-name="eight" unicode="8" 
d="M234 363c-34 0 -67 -22 -67 -71v-119c0 -49 33 -71 67 -71c32 0 66 19 66 71v119c0 52 -34 71 -66 71zM234 722c-35 0 -67 -22 -67 -71v-112c0 -49 32 -71 66 -71c35 0 67 20 67 71v112c0 48 -30 71 -66 71zM233 -7c-98 0 -182 66 -182 183v82c0 61 9 105 43 138l8 7
c6 6 8 11 8 16s-2 11 -9 17l-7 7c-39 36 -43 88 -43 159v46c0 119 83 184 183 184c96 0 182 -61 182 -184v-46c0 -71 -5 -123 -43 -159l-7 -7c-7 -6 -9 -12 -9 -17s2 -10 8 -16l8 -7c35 -33 43 -77 43 -138v-82c0 -112 -76 -183 -183 -183z" />
    <glyph glyph-name="nine" unicode="9" horiz-adv-x="465" 
d="M300 475v164c0 59 -28 85 -67 85c-36 0 -66 -22 -66 -85v-112c0 -51 34 -75 68 -75h42c13 0 23 10 23 23zM167 226v-39c0 -61 28 -86 66 -86c39 0 67 26 67 86v137c0 13 -9 23 -23 23h-44c-109 0 -181 65 -181 202v98c0 123 82 185 182 185c97 0 181 -59 181 -183v-472
c0 -115 -77 -184 -181 -184c-97 0 -182 58 -182 186v47c0 18 14 32 32 32h50c18 0 33 -14 33 -32z" />
    <glyph glyph-name="colon" unicode=":" horiz-adv-x="228" 
d="M55 32v55c0 18 14 32 32 32h53c18 0 32 -14 32 -32v-55c0 -18 -14 -32 -32 -32h-53c-18 0 -32 14 -32 32zM55 512v55c0 18 14 32 32 32h53c18 0 32 -14 32 -32v-55c0 -18 -14 -32 -32 -32h-53c-18 0 -32 14 -32 32z" />
    <glyph glyph-name="semicolon" unicode=";" horiz-adv-x="228" 
d="M74 1l5 -1c15 -3 17 -11 17 -21c-1 -15 -10 -33 -30 -48l-6 -5c-18 -15 -21 -24 -21 -31c0 -18 21 -37 37 -37s35 13 56 36c23 25 42 60 42 111v76c0 21 -10 38 -32 38h-56c-23 0 -31 -14 -31 -32v-56c0 -17 6 -27 19 -30zM55 512v55c0 18 14 32 32 32h53
c18 0 32 -14 32 -32v-55c0 -18 -14 -32 -32 -32h-53c-18 0 -32 14 -32 32z" />
    <glyph glyph-name="less" unicode="&#x3c;" horiz-adv-x="549" 
d="M215 346c0 -23 41 -27 68 -35l161 -49c23 -7 30 -15 30 -33v-44c0 -20 -11 -30 -30 -30c-5 0 -12 1 -17 2l-282 95l-30 12c-31 12 -40 26 -40 58v47c0 43 20 52 70 70l282 91c4 0 9 1 12 2c22 0 35 -8 35 -30v-39c0 -22 -12 -27 -45 -37l-191 -58c-13 -4 -23 -9 -23 -22z
" />
    <glyph glyph-name="equal" unicode="=" horiz-adv-x="549" 
d="M92 498h364c18 0 32 -14 32 -32v-44c0 -18 -14 -32 -32 -32h-364c-18 0 -32 14 -32 32v44c0 18 14 32 32 32zM92 300h364c18 0 32 -14 32 -32v-44c0 -18 -14 -32 -32 -32h-364c-18 0 -32 14 -32 32v44c0 18 14 32 32 32z" />
    <glyph glyph-name="greater" unicode="&#x3e;" horiz-adv-x="549" 
d="M333 346c0 13 -10 18 -23 22l-29 8c-54 15 -107 34 -160 49c-34 10 -45 17 -45 38v44c0 22 13 30 35 30l35 -9c86 -30 171 -59 257 -88l30 -11c30 -11 41 -28 41 -59v-47c0 -32 -10 -48 -40 -59l-31 -11c-87 -27 -169 -61 -256 -88l-26 -8c-7 -2 -13 -2 -17 -2
c-21 0 -30 10 -30 30v44c0 18 7 26 29 33l207 62c13 4 23 9 23 22z" />
    <glyph glyph-name="question" unicode="?" horiz-adv-x="451" 
d="M172 32v55c0 18 14 32 32 32h54c18 0 32 -14 32 -32v-55c0 -18 -14 -32 -32 -32h-54c-18 0 -32 14 -32 32zM179 223c-1 18 -3 44 -3 61c0 44 15 81 44 125l34 52c28 43 46 77 46 142v37c0 50 -22 84 -69 84c-31 0 -64 -15 -64 -97v-19c0 -22 -10 -41 -32 -41h-50
c-17 0 -33 14 -33 32v46c0 105 71 187 179 187c104 0 184 -65 184 -189v-51c0 -64 -15 -104 -56 -171l-45 -73c-26 -42 -29 -73 -30 -93l-1 -25c-1 -21 -11 -37 -33 -37h-39c-17 0 -30 12 -32 30z" />
    <glyph glyph-name="at" unicode="@" horiz-adv-x="767" 
d="M537 17c-44 -15 -92 -24 -140 -24c-218 0 -355 146 -355 358v119c0 199 158 362 355 362c195 0 328 -141 328 -331v-61c0 -186 -89 -278 -190 -278c-25 0 -44 2 -63 12l-7 3c-7 4 -17 10 -30 10c-24 0 -40 -25 -100 -25c-70 0 -142 55 -142 171c0 44 11 111 21 173
c15 96 74 163 169 163c55 0 71 -24 89 -24c14 0 30 24 53 24c19 0 35 -14 35 -36l-4 -27c-14 -95 -26 -190 -40 -285c-4 -26 -7 -47 -7 -57c0 -28 15 -41 38 -41c57 0 110 71 110 218v62c0 155 -104 263 -259 263c-170 0 -287 -134 -287 -296v-119c0 -190 117 -292 288 -292
c77 0 146 24 205 66c14 10 18 16 33 16c16 0 32 -21 32 -34c0 -29 -82 -73 -132 -90zM350 255c28 0 61 17 66 56l23 164c2 14 2 27 2 40c0 43 -36 60 -61 60c-39 0 -61 -24 -68 -74l-19 -138c-3 -22 -3 -36 -3 -43c0 -40 25 -65 60 -65z" />
    <glyph glyph-name="A" unicode="A" 
d="M300 459v169c0 67 -23 96 -66 96c-42 0 -67 -27 -67 -96v-169c0 -10 8 -22 23 -22h87c13 0 23 10 23 22zM52 32v608c0 129 82 192 182 192c99 0 181 -63 181 -192v-608c0 -18 -14 -32 -32 -32h-50c-18 0 -33 14 -33 32v278c0 12 -10 22 -23 22h-87c-15 0 -23 -12 -23 -22
v-278c0 -18 -14 -32 -32 -32h-51c-18 0 -32 14 -32 32z" />
    <glyph glyph-name="B" unicode="B" 
d="M300 197v91c-5 57 -38 75 -69 75h-41c-13 0 -23 -8 -23 -23v-210c0 -12 10 -22 23 -22h41c34 0 69 22 69 89zM300 556v87c0 54 -39 74 -68 74h-40c-15 0 -25 -7 -25 -22v-206c0 -12 10 -22 23 -22h41c33 0 69 21 69 89zM236 0h-152c-18 0 -32 14 -32 32v761
c0 18 14 32 32 32h153c94 0 180 -62 180 -184v-56c0 -68 -9 -110 -41 -146l-8 -9c-5 -6 -8 -10 -8 -15s2 -10 8 -16l8 -8c34 -34 41 -76 41 -138v-70c0 -109 -72 -183 -181 -183z" />
    <glyph glyph-name="C" unicode="C" horiz-adv-x="462" 
d="M300 186v49c0 18 15 32 33 32h50c18 0 32 -14 32 -32v-51c0 -130 -83 -191 -181 -191c-99 0 -182 61 -182 191v456c0 129 82 192 182 192c99 0 181 -63 181 -192v-41c0 -18 -14 -32 -32 -32h-50c-18 0 -33 14 -33 32v39c0 61 -28 86 -66 86c-39 0 -67 -26 -67 -86v-452
c0 -55 24 -85 67 -85c36 0 66 22 66 85z" />
    <glyph glyph-name="D" unicode="D" 
d="M167 695v-565c0 -15 7 -22 23 -22h41c34 0 69 22 69 89v431c0 66 -32 89 -68 89h-42c-16 0 -23 -8 -23 -22zM233 0h-149c-18 0 -32 14 -32 32v761c0 18 14 32 32 32h150c99 0 181 -63 181 -192v-442c0 -128 -82 -191 -182 -191z" />
    <glyph glyph-name="E" unicode="E" horiz-adv-x="367" 
d="M300 0h-216c-18 0 -32 14 -32 32v761c0 18 14 32 32 32h216c18 0 32 -14 32 -32v-48c0 -18 -14 -30 -32 -32h-110c-14 0 -23 -10 -23 -23v-196c0 -13 9 -23 23 -23h100c18 0 32 -14 32 -32v-48c0 -18 -14 -32 -32 -32h-100c-14 0 -23 -10 -23 -23v-201
c0 -13 9 -23 23 -23h110c18 0 32 -14 32 -32v-48c0 -18 -14 -32 -32 -32z" />
    <glyph glyph-name="F" unicode="F" horiz-adv-x="357" 
d="M52 32v761c0 18 14 32 32 32h213c18 0 32 -14 32 -32v-48c0 -18 -14 -30 -32 -32h-107c-14 0 -23 -10 -23 -23v-227c0 -13 9 -23 23 -23h100c18 0 32 -14 32 -32v-47c0 -18 -14 -32 -32 -32h-100c-14 0 -23 -10 -23 -23v-274c0 -18 -14 -32 -32 -32h-51
c-18 0 -32 14 -32 32z" />
    <glyph glyph-name="G" unicode="G" 
d="M216 -5c-94 0 -164 68 -164 189v456c0 104 58 192 182 192c115 0 181 -80 181 -192v-36c0 -18 -14 -32 -32 -32h-50c-18 0 -33 14 -33 32v34c0 57 -24 86 -66 86c-39 0 -67 -26 -67 -86v-452c0 -46 16 -85 67 -85c38 0 66 24 66 85v117c0 19 -11 29 -26 29
c-19 0 -32 16 -32 31v51c0 18 14 32 32 32h109c18 0 32 -14 32 -32v-370c0 -38 -20 -48 -42 -48c-10 0 -17 3 -23 6l-11 6c-8 4 -16 7 -25 7c-42 0 -65 -20 -98 -20z" />
    <glyph glyph-name="H" unicode="H" 
d="M52 32v761c0 18 14 32 32 32h51c18 0 32 -14 32 -32v-302c0 -12 7 -22 23 -22h87c15 0 23 11 23 22v302c0 18 15 32 33 32h50c18 0 32 -14 32 -32v-761c0 -18 -14 -32 -32 -32h-50c-18 0 -33 14 -33 32v306c0 11 -8 22 -23 22h-87c-15 0 -23 -11 -23 -22v-306
c0 -18 -14 -32 -32 -32h-51c-18 0 -32 14 -32 32z" />
    <glyph glyph-name="I" unicode="I" horiz-adv-x="228" 
d="M171 792v-760c0 -18 -14 -32 -32 -32h-51c-18 0 -32 14 -32 32v761c0 18 14 32 32 32h51c18 0 32 -15 32 -33z" />
    <glyph glyph-name="J" unicode="J" horiz-adv-x="325" 
d="M91 0h-37c-18 0 -32 14 -32 32v48c0 18 14 32 32 32h37c18 0 34 6 47 19c13 14 19 35 19 66v596c0 18 14 32 33 32h50c18 0 32 -15 32 -33v-607c0 -65 -20 -106 -53 -137c-32 -30 -76 -48 -128 -48z" />
    <glyph glyph-name="K" unicode="K" 
d="M415 793v-230c0 -49 -8 -93 -41 -125l-8 -8c-6 -5 -8 -10 -8 -15s2 -10 8 -16l8 -8c34 -31 41 -75 41 -124v-235c0 -18 -13 -32 -31 -32h-51c-18 0 -33 14 -33 32v243c0 59 -30 86 -67 86h-44c-13 0 -22 -10 -22 -23v-306c0 -18 -14 -32 -32 -32h-51c-18 0 -32 14 -32 32
v761c0 18 14 32 32 32h51c18 0 32 -14 32 -32v-302c0 -14 9 -22 23 -22h43c36 0 67 23 67 85v239c0 18 15 32 33 32h51c18 0 31 -14 31 -32z" />
    <glyph glyph-name="L" unicode="L" horiz-adv-x="353" 
d="M167 793v-658c0 -13 9 -23 23 -23h113c18 0 32 -14 32 -32v-48c0 -18 -14 -32 -32 -32h-219c-18 0 -32 14 -32 32v761c0 18 14 32 32 32h51c18 0 32 -14 32 -32z" />
    <glyph glyph-name="M" unicode="M" horiz-adv-x="708" 
d="M542 32v606c-1 63 -30 86 -65 86c-38 0 -65 -26 -65 -86v-606c0 -18 -14 -32 -32 -32h-50c-18 0 -33 14 -33 32v606c0 63 -30 86 -65 86c-38 0 -65 -26 -65 -86v-606c0 -18 -14 -32 -32 -32h-51c-18 0 -32 14 -32 32v748c0 35 20 49 42 49c12 0 22 -5 32 -11l5 -3
c8 -4 14 -7 23 -7c11 0 27 8 44 14c16 6 32 8 48 8c24 0 47 -5 68 -16c17 -8 32 -16 45 -16c15 0 32 10 54 19c24 10 49 14 73 14c78 0 171 -49 171 -184v-615c0 -18 -14 -32 -32 -32h-51c-18 0 -32 14 -32 32z" />
    <glyph glyph-name="N" unicode="N" 
d="M300 32v607c0 30 -5 51 -18 65c-13 13 -30 20 -48 20c-19 0 -36 -7 -48 -20c-14 -14 -19 -35 -19 -65v-607c0 -18 -14 -32 -32 -32h-51c-18 0 -32 14 -32 32v748c0 19 4 29 12 36c7 8 18 13 30 13c13 0 22 -5 32 -11l5 -3c8 -4 16 -7 25 -7c11 0 26 8 44 14
c16 5 34 9 54 9c39 0 83 -17 108 -42c38 -34 53 -83 53 -142v-615c0 -18 -14 -32 -32 -32h-50c-18 0 -33 14 -33 32z" />
    <glyph glyph-name="O" unicode="O" 
d="M167 638v-452c0 -59 28 -85 67 -85c36 0 66 22 66 85v452c0 63 -30 86 -66 86c-40 0 -67 -26 -67 -86zM415 640v-456c0 -126 -77 -191 -181 -191c-99 0 -182 61 -182 191v456c0 129 81 192 182 192c99 0 181 -63 181 -192z" />
    <glyph glyph-name="P" unicode="P" horiz-adv-x="465" 
d="M300 518v125c-3 53 -36 74 -69 74h-40c-15 0 -24 -8 -24 -22v-245c0 -14 9 -22 23 -22h41c34 0 69 24 69 90zM135 0h-51c-18 0 -32 14 -32 32v761c0 18 14 32 32 32h149c96 0 182 -57 182 -192v-121c0 -128 -82 -191 -182 -191h-43c-14 0 -23 -10 -23 -23v-266
c0 -18 -14 -32 -32 -32z" />
    <glyph glyph-name="Q" unicode="Q" 
d="M300 191v447c0 63 -30 86 -66 86c-39 0 -67 -26 -67 -86v-447c0 -58 26 -85 67 -85c36 0 66 22 66 85zM454 0h-220c-98 0 -182 62 -182 191v449c0 109 62 192 182 192c99 0 181 -63 181 -192v-396c0 -42 -1 -63 -14 -87c-5 -9 -9 -16 -9 -24c0 -12 11 -21 24 -21h38
c15 0 25 -10 25 -23v-66c0 -14 -11 -23 -25 -23z" />
    <glyph glyph-name="R" unicode="R" 
d="M415 221v-189c0 -18 -14 -32 -32 -32h-50c-18 0 -33 14 -33 32v215c0 70 -34 90 -69 90h-42c-13 0 -22 -10 -22 -23v-282c0 -18 -14 -32 -32 -32h-51c-18 0 -32 14 -32 32v761c0 18 14 32 32 32h150c110 0 181 -77 181 -187v-99c0 -50 -8 -97 -42 -127l-9 -8
c-6 -5 -8 -11 -8 -16s3 -10 8 -15l9 -8c37 -35 42 -83 42 -144zM190 442h41c31 0 69 15 69 75v106c0 64 -23 94 -68 94h-41c-15 0 -24 -8 -24 -22v-231c0 -13 9 -22 23 -22z" />
    <glyph glyph-name="S" unicode="S" horiz-adv-x="463" 
d="M165 235v-51c0 -42 16 -83 66 -83c39 0 69 25 69 84v50c0 62 -20 82 -57 103l-83 46c-81 46 -110 97 -110 178v84c0 110 72 186 181 186c106 0 179 -69 179 -191v-43c0 -18 -15 -32 -34 -32h-48c-19 0 -33 14 -33 32v42c0 59 -28 84 -65 84c-49 0 -66 -35 -66 -101v-35
c0 -62 12 -80 66 -109l72 -39c74 -40 112 -76 112 -190v-67c0 -130 -87 -190 -182 -190c-100 0 -182 65 -182 191v51c0 18 15 32 33 32h48c18 0 34 -14 34 -32z" />
    <glyph glyph-name="T" unicode="T" horiz-adv-x="412" 
d="M62 825h288c18 0 32 -14 32 -32v-48c0 -18 -14 -32 -32 -32h-63c-14 0 -23 -10 -23 -23v-658c0 -18 -14 -32 -33 -32h-50c-18 0 -32 14 -32 32v658c0 13 -10 23 -23 23h-64c-18 0 -32 14 -32 32v48c0 18 14 32 32 32z" />
    <glyph glyph-name="U" unicode="U" 
d="M300 186v607c0 18 15 32 33 32h50c18 0 32 -14 32 -32v-615c0 -119 -77 -185 -181 -185c-98 0 -182 59 -182 187v613c0 18 14 32 32 32h51c18 0 32 -14 32 -32v-607c0 -58 26 -85 67 -85c38 0 66 24 66 85z" />
    <glyph glyph-name="V" unicode="V" horiz-adv-x="501" 
d="M299 0h-99c-51 0 -70 21 -75 66l-76 690c-1 10 -4 28 -4 37c0 16 11 32 33 32h44c26 0 37 -11 40 -38l66 -654c2 -15 8 -24 22 -24s21 9 23 24l66 654c3 27 15 38 43 38h38c27 0 35 -16 35 -32c0 -9 -2 -27 -3 -37l-78 -690c-5 -45 -24 -66 -75 -66z" />
    <glyph glyph-name="W" unicode="W" horiz-adv-x="708" 
d="M52 178v615c0 18 14 32 32 32h51c18 0 32 -14 32 -32v-606c0 -60 27 -86 65 -86c35 0 65 23 65 86v606c0 18 15 32 33 32h50c18 0 32 -14 32 -32v-606c0 -60 27 -86 65 -86c35 0 65 23 65 86v606c0 18 14 32 32 32h51c18 0 32 -14 32 -32v-615c0 -128 -95 -183 -173 -183
c-35 0 -75 8 -103 28l-10 7c-7 4 -12 6 -18 6s-11 -2 -18 -6l-9 -7c-29 -20 -68 -28 -104 -28c-78 0 -170 53 -170 183z" />
    <glyph glyph-name="X" unicode="X" 
d="M234 363c-59 0 -67 -52 -67 -114v-216c0 -16 -11 -33 -32 -33h-51c-17 0 -32 15 -32 32v222c0 62 5 107 40 138l9 8c6 6 7 11 7 16s-1 10 -7 15l-9 9c-34 34 -40 77 -40 145v208c0 17 15 32 32 32h51c21 0 32 -17 32 -33v-211c0 -59 3 -113 67 -113s67 54 67 113v211
c0 16 11 33 32 33h51c17 0 32 -15 32 -32v-208c0 -68 -6 -111 -40 -145l-9 -9c-6 -5 -7 -10 -7 -15s1 -10 7 -16l9 -8c35 -31 40 -76 40 -138v-222c0 -17 -15 -32 -32 -32h-51c-21 0 -32 17 -32 33v216c0 62 -8 114 -67 114z" />
    <glyph glyph-name="Y" unicode="Y" 
d="M177 32v271c0 9 -5 17 -14 22l-8 4c-64 32 -103 82 -103 170v294c0 18 14 32 32 32h51c18 0 32 -14 32 -32v-286c0 -30 5 -51 19 -65c12 -13 29 -20 48 -20c18 0 35 7 48 20c13 14 18 35 18 65v286c0 18 15 32 33 32h50c18 0 32 -14 32 -32v-294
c0 -92 -44 -146 -100 -170l-7 -3c-9 -4 -16 -12 -16 -22v-272c0 -18 -14 -32 -32 -32h-51c-18 0 -32 14 -32 32z" />
    <glyph glyph-name="Z" unicode="Z" horiz-adv-x="406" 
d="M43 32v40c0 13 3 25 9 44l147 494c17 58 22 80 22 81c0 13 -8 22 -24 22h-119c-19 0 -33 14 -33 32v47c0 18 14 33 33 33h245c19 0 33 -15 33 -33v-45c0 -4 -3 -20 -9 -40l-163 -545c-3 -10 -6 -25 -6 -28c0 -14 7 -22 23 -22h129c19 0 33 -15 33 -33v-47
c0 -18 -14 -32 -33 -32h-254c-19 0 -33 14 -33 32z" />
    <glyph glyph-name="bracketleft" unicode="[" horiz-adv-x="316" 
d="M147 825v-880c0 -13 10 -23 23 -23h72c18 0 32 -14 32 -32v-23c0 -18 -14 -32 -32 -32h-168c-18 0 -32 14 -32 32v1036c0 18 14 32 32 32h168c18 0 32 -14 32 -32v-23c0 -18 -14 -31 -32 -32h-72c-13 0 -23 -10 -23 -23z" />
    <glyph glyph-name="backslash" unicode="\" horiz-adv-x="348" 
d="M96 839l202 -826c4 -18 8 -33 8 -40c0 -8 -4 -16 -11 -20c-5 -4 -11 -6 -19 -6h-20c-8 0 -14 2 -19 6c-6 5 -11 12 -13 21l-202 826c-5 18 -9 33 -9 40s3 14 8 19c5 4 12 7 22 7h18c9 0 16 -2 22 -7c6 -4 10 -11 13 -20z" />
    <glyph glyph-name="bracketright" unicode="]" horiz-adv-x="316" 
d="M149 -55v880c0 13 -9 23 -23 23h-72c-18 1 -32 14 -32 32v23c0 18 14 32 32 32h168c18 0 32 -14 32 -32v-1036c0 -18 -14 -32 -32 -32h-168c-18 0 -32 14 -32 32v23c0 18 14 32 32 32h72c14 0 23 10 23 23z" />
    <glyph glyph-name="asciicircum" unicode="^" horiz-adv-x="549" 
d="M227 598h68c47 0 57 -16 77 -67l91 -232c5 -10 10 -28 10 -36c0 -20 -11 -29 -32 -29h-53c-22 0 -28 11 -39 42c-22 61 -47 122 -65 184c-4 13 -9 23 -23 23s-19 -10 -23 -23c-18 -62 -43 -123 -65 -184c-11 -31 -17 -42 -39 -42h-53c-21 0 -32 9 -32 29c0 8 5 26 10 36
l91 232c20 51 30 67 77 67z" />
    <glyph glyph-name="underscore" unicode="_" horiz-adv-x="549" 
d="M67 -56h399c18 0 32 -14 32 -32v-27c0 -18 -14 -32 -32 -32h-399c-18 0 -32 14 -32 32v27c0 18 14 32 32 32z" />
    <glyph glyph-name="grave" unicode="`" horiz-adv-x="458" 
d="M266 692l-122 87c-9 7 -11 14 -11 22c0 12 10 24 27 24h58c21 0 32 -5 44 -24l51 -78c5 -7 7 -12 7 -17c0 -14 -11 -26 -27 -26c-7 0 -17 4 -27 12z" />
    <glyph glyph-name="a" unicode="a" horiz-adv-x="453" 
d="M158 202v-27c0 -47 26 -77 68 -77c37 0 63 23 63 77v80c0 19 -18 23 -34 23h-32c-42 0 -65 -30 -65 -76zM401 34c0 -25 -17 -39 -39 -39c-12 0 -22 5 -31 11l-4 3c-7 6 -13 8 -23 8c-17 0 -38 -24 -94 -24c-84 0 -165 73 -165 186v28c0 87 63 168 167 168h54
c14 0 23 10 23 23v42c0 66 -22 96 -65 96c-36 0 -65 -25 -65 -82v-5c0 -18 -14 -32 -32 -32h-47c-18 0 -32 15 -32 33v22c0 109 83 170 176 170c97 0 177 -64 177 -189v-419z" />
    <glyph glyph-name="b" unicode="b" horiz-adv-x="455" 
d="M189 3c-19 7 -31 14 -41 14c-8 0 -15 -2 -22 -8l-4 -3c-9 -6 -19 -12 -31 -12c-21 0 -39 11 -39 40v759c0 18 14 32 32 32h48c18 0 32 -14 32 -32v-99c0 -13 -1 -20 -1 -36c0 -14 13 -25 25 -25c14 0 32 5 58 5c90 0 160 -68 160 -189v-266c0 -132 -84 -190 -161 -190
c-22 0 -42 5 -56 10zM230 99c44 0 64 29 64 99v239c0 68 -21 99 -65 99s-65 -31 -65 -99v-239c0 -70 20 -99 66 -99z" />
    <glyph glyph-name="c" unicode="c" horiz-adv-x="448" 
d="M229 536c-44 0 -65 -31 -65 -99v-239c0 -70 20 -99 66 -99c38 0 64 26 64 86v7c0 18 14 32 32 32h48c18 0 32 -14 32 -32v-13c0 -122 -78 -186 -176 -186c-96 0 -178 63 -178 189v271c0 127 80 189 177 189c98 0 177 -67 177 -182v-9c0 -18 -14 -32 -32 -32h-48
c-18 0 -32 14 -32 32v3c0 44 -20 82 -65 82z" />
    <glyph glyph-name="d" unicode="d" horiz-adv-x="455" 
d="M266 3c-14 -5 -34 -10 -56 -10c-77 0 -161 58 -161 190v266c0 121 70 189 160 189c26 0 44 -5 58 -5c12 0 25 11 25 25c0 16 -1 23 -1 36v99c0 18 14 32 32 32h48c18 0 32 -14 32 -32v-759c0 -29 -18 -40 -39 -40c-12 0 -22 6 -31 12l-4 3c-7 6 -14 8 -22 8
c-10 0 -22 -7 -41 -14zM225 99c46 0 66 29 66 99v239c0 68 -21 99 -65 99s-65 -31 -65 -99v-239c0 -70 20 -99 64 -99z" />
    <glyph glyph-name="e" unicode="e" horiz-adv-x="457" 
d="M164 450v-35c0 -18 12 -22 23 -22h79c15 0 28 3 28 23v30c0 59 -22 90 -64 90c-37 0 -66 -24 -66 -86zM368 295h-181c-14 0 -23 -9 -23 -22v-89c0 -59 27 -86 66 -86c38 0 64 26 64 86v2c0 18 14 32 32 32h48c18 0 32 -14 32 -32v-7c0 -122 -78 -186 -176 -186
c-96 0 -178 60 -178 189v271c0 125 81 189 178 189s176 -65 176 -187v-122c0 -19 -16 -38 -38 -38z" />
    <glyph glyph-name="f" unicode="f" horiz-adv-x="342" 
d="M56 635h26c13 0 22 9 22 22v21c0 90 47 147 145 147h25c19 0 32 -15 32 -32v-43c0 -19 -15 -32 -33 -32h-16c-27 0 -42 -18 -42 -47v-14c0 -12 10 -22 24 -22h35c16 0 32 -11 32 -29v-44c0 -25 -21 -33 -32 -33h-35c-14 0 -24 -11 -24 -24v-472c0 -21 -18 -33 -32 -33
h-47c-19 0 -32 15 -32 33v473c0 13 -9 23 -22 23h-26c-17 0 -32 14 -32 33v41c0 12 10 32 32 32z" />
    <glyph glyph-name="g" unicode="g" horiz-adv-x="456" 
d="M406 599v-586c0 -107 -72 -184 -175 -184c-93 0 -177 69 -177 162v4c1 17 15 29 32 29h46c18 0 30 -11 33 -30c0 -37 30 -59 64 -59c40 0 65 26 65 83v37c0 13 -9 20 -21 20c-17 0 -38 -5 -60 -5h-7c-111 0 -154 109 -154 185v196c0 149 98 191 162 191
c53 0 81 -26 97 -26c9 0 15 3 22 8l4 3c9 7 20 13 32 13c19 0 37 -10 37 -41zM230 172c44 0 64 29 64 99v166c0 68 -21 99 -65 99s-65 -31 -65 -99v-166c0 -70 20 -99 66 -99z" />
    <glyph glyph-name="h" unicode="h" horiz-adv-x="458" 
d="M52 32v761c0 18 14 32 32 32h48c18 0 32 -14 32 -32v-111c0 -12 -1 -19 -1 -28c0 -18 9 -25 21 -25c14 0 24 9 61 9c69 0 161 -51 161 -183v-423c0 -18 -14 -32 -32 -32h-48c-18 0 -32 14 -32 32v418c0 58 -27 86 -65 86c-37 0 -65 -24 -65 -86v-418
c0 -18 -14 -32 -32 -32h-48c-18 0 -32 14 -32 32z" />
    <glyph glyph-name="i" unicode="i" horiz-adv-x="223" 
d="M55 32v571c0 18 14 32 32 32h48c18 0 32 -14 32 -32v-571c0 -18 -14 -32 -32 -32h-48c-18 0 -32 14 -32 32zM55 744v49c0 18 14 32 32 32h48c18 0 32 -14 32 -32v-49c0 -18 -14 -32 -32 -32h-48c-18 0 -32 14 -32 32z" />
    <glyph glyph-name="j" unicode="j" horiz-adv-x="223" 
d="M55 2v601c0 18 14 32 32 32h48c18 0 32 -14 32 -32v-595c0 -139 -83 -173 -156 -173h-12c-18 0 -32 14 -32 32v43c0 18 14 32 32 32h7c36 0 49 25 49 60zM55 744v49c0 18 14 32 32 32h48c18 0 32 -14 32 -32v-49c0 -18 -14 -32 -32 -32h-48c-18 0 -32 14 -32 32z" />
    <glyph glyph-name="k" unicode="k" horiz-adv-x="460" 
d="M406 603v-120c0 -51 -8 -94 -41 -126l-9 -8c-5 -6 -7 -11 -7 -16s2 -10 7 -15l9 -8c32 -32 41 -76 41 -126v-152c0 -18 -14 -32 -32 -32h-48c-18 0 -32 14 -32 32v150c0 75 -25 100 -65 100h-43c-13 0 -22 -10 -22 -23v-227c0 -18 -14 -32 -32 -32h-48
c-18 0 -32 14 -32 32v761c0 18 14 32 32 32h48c18 0 32 -14 32 -32v-386c0 -13 9 -22 23 -22h42c41 0 65 28 65 100v118c0 18 14 32 32 32h49c18 0 31 -14 31 -32z" />
    <glyph glyph-name="l" unicode="l" horiz-adv-x="223" 
d="M167 793v-761c0 -18 -14 -32 -32 -32h-48c-18 0 -32 14 -32 32v761c0 18 14 32 32 32h48c18 0 32 -14 32 -32z" />
    <glyph glyph-name="m" unicode="m" horiz-adv-x="693" 
d="M530 32v418c0 61 -30 86 -65 86c-36 0 -62 -24 -62 -86v-418c0 -18 -14 -32 -32 -32h-48c-18 0 -32 14 -32 32v418c0 61 -27 86 -62 86c-36 0 -65 -24 -65 -86v-418c0 -18 -14 -32 -32 -32h-48c-18 0 -32 14 -32 32v567c0 25 17 40 39 40c12 0 22 -5 31 -12l4 -3
c7 -6 14 -9 23 -9s21 8 39 15c17 6 38 11 58 11c34 0 62 -9 87 -29c6 -4 13 -7 21 -7c7 0 13 3 19 7c27 19 55 29 102 29c79 0 167 -50 167 -184v-425c0 -18 -14 -32 -32 -32h-48c-18 0 -32 14 -32 32z" />
    <glyph glyph-name="n" unicode="n" horiz-adv-x="458" 
d="M294 32v418c0 31 -6 51 -19 65c-12 14 -28 21 -46 21c-19 0 -34 -7 -47 -21s-18 -34 -18 -65v-418c0 -18 -14 -32 -32 -32h-48c-18 0 -32 14 -32 32v567c0 13 5 23 12 30c7 6 16 10 27 10c12 0 22 -5 31 -12l4 -3c7 -6 14 -9 23 -9s21 9 40 16c17 6 37 10 58 10
c38 0 76 -14 107 -43c37 -34 52 -82 52 -141v-425c0 -18 -14 -32 -32 -32h-48c-18 0 -32 14 -32 32z" />
    <glyph glyph-name="o" unicode="o" horiz-adv-x="458" 
d="M230 99c44 0 64 29 64 99v239c0 68 -21 99 -65 99s-65 -31 -65 -99v-239c0 -70 20 -99 66 -99zM228 -7c-96 0 -176 63 -176 189v271c0 127 80 189 177 189s177 -62 177 -189v-271c0 -126 -80 -189 -178 -189z" />
    <glyph glyph-name="p" unicode="p" horiz-adv-x="455" 
d="M189 631c14 5 34 10 56 10c77 0 161 -58 161 -190v-266c0 -121 -70 -189 -160 -189c-26 0 -44 5 -58 5c-12 0 -25 -11 -25 -25c0 -16 1 -23 1 -36v-73c0 -18 -14 -32 -32 -32h-48c-18 0 -32 14 -32 32v733c0 29 18 40 39 40c12 0 22 -6 31 -12l4 -3c7 -6 14 -8 22 -8
c10 0 22 7 41 14zM230 535c-46 0 -66 -29 -66 -99v-239c0 -68 21 -99 65 -99s65 31 65 99v239c0 70 -20 99 -64 99z" />
    <glyph glyph-name="q" unicode="q" horiz-adv-x="455" 
d="M266 631c19 -7 31 -14 41 -14c8 0 15 2 22 8l4 3c9 6 19 12 31 12c21 0 39 -11 39 -40v-733c0 -18 -14 -32 -32 -32h-48c-18 0 -32 14 -32 32v73c0 13 1 20 1 36c0 14 -13 25 -25 25c-14 0 -32 -5 -58 -5c-90 0 -160 68 -160 189v266c0 132 84 190 161 190
c22 0 42 -5 56 -10zM225 535c-44 0 -64 -29 -64 -99v-239c0 -68 21 -99 65 -99s65 31 65 99v239c0 70 -20 99 -66 99z" />
    <glyph glyph-name="r" unicode="r" horiz-adv-x="315" 
d="M280 605v-54c0 -20 -18 -32 -36 -32h-10c-53 0 -70 -15 -70 -79v-408c0 -15 -7 -32 -37 -32h-43c-18 0 -32 14 -32 32v565c0 24 16 39 38 39c13 0 23 -6 32 -13l4 -3c6 -5 15 -8 22 -8c13 0 20 5 47 15c17 6 31 10 53 10c18 0 32 -14 32 -32z" />
    <glyph glyph-name="s" unicode="s" horiz-adv-x="451" 
d="M290 163v14c0 32 -16 52 -48 70l-99 55c-70 39 -94 79 -94 141v33c0 55 38 166 178 166c98 0 176 -67 176 -178v-15c0 -18 -14 -32 -32 -32h-48c-18 0 -32 14 -32 32v6c0 21 -4 41 -14 55c-11 15 -28 26 -53 26c-44 0 -62 -39 -62 -64v-14c0 -22 7 -46 50 -70l102 -57
c70 -39 89 -80 89 -146v-26c0 -55 -38 -166 -178 -166c-98 0 -176 67 -176 178v15c0 18 14 32 32 32h48c18 0 32 -14 32 -32v-6c0 -21 4 -41 14 -55c11 -15 28 -26 53 -26c44 0 62 39 62 64z" />
    <glyph glyph-name="t" unicode="t" horiz-adv-x="336" 
d="M70 529h-14c-22 0 -32 20 -32 32v41c0 19 15 33 32 33h14c13 0 22 10 22 23v64c0 18 13 33 32 33h47c14 0 32 -12 32 -33v-63c0 -13 10 -24 24 -24h41c11 0 32 -8 32 -33v-44c0 -18 -16 -29 -32 -29h-41c-14 0 -24 -10 -24 -22v-353c0 -29 15 -47 42 -47h22
c18 0 33 -13 33 -32v-43c0 -17 -13 -32 -32 -32h-31c-98 0 -145 57 -145 147v360c0 13 -9 22 -22 22z" />
    <glyph glyph-name="u" unicode="u" horiz-adv-x="458" 
d="M164 603v-419c0 -31 5 -51 18 -65s28 -21 47 -21c18 0 34 7 46 21c13 14 19 34 19 65v419c0 18 14 32 32 32h48c18 0 32 -14 32 -32v-569c0 -13 -4 -23 -11 -30s-16 -10 -27 -10c-12 0 -23 5 -32 12l-4 3c-7 6 -13 9 -22 9c-10 0 -21 -8 -40 -15c-17 -6 -36 -10 -58 -10
c-37 0 -77 14 -107 43c-37 34 -53 82 -53 141v426c0 18 14 32 32 32h48c18 0 32 -14 32 -32z" />
    <glyph glyph-name="v" unicode="v" horiz-adv-x="480" 
d="M287 0h-94c-64 0 -71 35 -79 91l-66 472c-4 28 -5 35 -5 40c0 9 4 17 10 23c5 5 13 9 27 9h41c25 0 36 -12 39 -37l58 -467c2 -15 7 -24 22 -24s20 9 22 24l58 467c3 25 14 37 39 37h41c14 0 22 -4 27 -9c6 -6 10 -14 10 -23c0 -5 -1 -12 -5 -40l-66 -472
c-8 -56 -15 -91 -79 -91z" />
    <glyph glyph-name="w" unicode="w" horiz-adv-x="693" 
d="M642 603v-425c0 -129 -90 -184 -166 -184c-34 0 -69 5 -95 24l-16 11c-6 4 -11 6 -17 6c-5 0 -11 -2 -17 -6l-14 -11c-29 -18 -62 -24 -98 -24c-76 0 -167 50 -167 184v425c0 18 14 32 32 32h48c18 0 32 -14 32 -32v-418c0 -62 29 -86 65 -86c35 0 62 25 62 86v418
c0 18 14 32 32 32h48c18 0 32 -14 32 -32v-418c0 -62 26 -86 62 -86c35 0 65 25 65 86v418c0 18 14 32 32 32h48c18 0 32 -14 32 -32z" />
    <glyph glyph-name="x" unicode="x" horiz-adv-x="458" 
d="M229 282c-48 0 -65 -35 -65 -108v-142c0 -18 -14 -32 -32 -32h-48c-18 0 -32 14 -32 32v141c0 61 7 104 40 137l9 9c6 5 7 10 7 15s-1 10 -7 16l-9 8c-34 34 -40 77 -40 146v99c0 18 14 32 32 32h48c18 0 32 -14 32 -32v-121c0 -65 18 -97 65 -97s65 32 65 97v121
c0 18 14 32 32 32h48c18 0 32 -14 32 -32v-99c0 -69 -6 -112 -40 -146l-9 -8c-6 -6 -7 -11 -7 -16s1 -10 7 -15l9 -9c33 -33 40 -76 40 -137v-141c0 -18 -14 -32 -32 -32h-48c-18 0 -32 14 -32 32v142c0 73 -17 108 -65 108z" />
    <glyph glyph-name="y" unicode="y" horiz-adv-x="458" 
d="M406 603v-590c0 -107 -72 -184 -175 -184c-93 0 -177 69 -177 162v4c1 17 15 29 32 29h46c18 0 30 -11 33 -30c0 -37 30 -59 64 -59c40 0 65 26 65 83v37c0 13 -9 20 -21 20c-17 0 -38 -5 -60 -5h-7c-111 0 -154 109 -154 185v348c0 18 14 32 32 32h48
c18 0 32 -14 32 -33v-331c0 -70 20 -99 66 -99c44 0 64 29 64 99v332c0 18 14 32 32 32h48c18 0 32 -14 32 -32z" />
    <glyph glyph-name="z" unicode="z" horiz-adv-x="386" 
d="M42 32v26c0 17 0 35 5 50l10 26c39 100 76 200 115 300c9 23 26 59 26 74c0 13 -7 22 -23 22h-100c-18 0 -32 14 -32 32v40c0 18 14 33 32 33h223c18 0 32 -15 32 -33v-45c0 -13 -6 -37 -15 -57l-138 -357c-2 -5 -4 -14 -4 -16c0 -13 7 -22 23 -22h116
c18 0 32 -14 32 -32v-41c0 -18 -14 -32 -32 -32h-238c-18 0 -32 14 -32 32z" />
    <glyph glyph-name="dagger" unicode="&#x2020;" horiz-adv-x="457" 
d="M424 565v-31c0 -20 -12 -32 -33 -32h-91c-14 0 -23 -8 -23 -21v-571c0 -18 -12 -32 -32 -32h-31c-21 0 -35 12 -35 32v571c0 13 -9 21 -23 21h-91c-21 0 -33 14 -33 32v31c0 20 12 31 33 31h91c14 0 23 9 23 22v175c0 18 14 32 33 32h32c21 0 33 -13 33 -32v-175
c0 -13 9 -22 23 -22h91c21 0 33 -14 33 -31z" />
    <glyph glyph-name="degree" unicode="&#xb0;" horiz-adv-x="344" 
d="M111 689c0 -34 27 -63 61 -63c33 0 59 29 59 63c0 33 -26 62 -59 62c-34 0 -61 -29 -61 -62zM28 689c0 78 64 142 144 142c79 0 143 -64 143 -142c0 -79 -64 -143 -143 -143c-80 0 -144 64 -144 143z" />
    <glyph glyph-name="cent" unicode="&#xa2;" 
d="M52 261v292c0 48 10 85 33 115c15 20 34 36 54 46c17 9 36 16 36 30v41c0 23 8 43 33 43h50c23 0 32 -20 32 -43v-41c0 -9 7 -16 16 -20c72 -28 107 -87 107 -172v-27c0 -18 -16 -32 -34 -32h-48c-21 0 -33 17 -33 36c0 60 -7 106 -65 106c-38 0 -66 -25 -66 -84v-266
c0 -64 21 -95 66 -95c31 0 64 14 64 91v15c0 17 11 35 34 35h48c17 0 34 -13 34 -32v-27c0 -50 -10 -86 -33 -117l-13 -14c-16 -18 -38 -31 -61 -40c-9 -4 -16 -11 -16 -20v-42c0 -24 -9 -42 -32 -42h-50c-25 0 -33 19 -33 42v42c0 9 -6 16 -14 20c-58 14 -109 80 -109 160z
" />
    <glyph glyph-name="sterling" unicode="&#xa3;" horiz-adv-x="509" 
d="M279 724c-39 0 -65 -27 -65 -75v-192c0 -13 9 -22 23 -22h62c24 0 42 -9 42 -32v-43c0 -29 -21 -32 -42 -32h-61c-14 0 -24 -8 -24 -21v-34c0 -69 -5 -100 -20 -126c-4 -5 -5 -11 -5 -15c1 -12 10 -20 23 -20h213c16 0 32 -15 32 -32v-40c0 -20 -10 -40 -32 -40h-353
c-18 0 -32 14 -32 32v44c1 12 2 21 12 30l10 9c36 32 40 69 40 105v86c0 13 -10 21 -24 21h-12c-23 0 -33 14 -33 32v43c0 18 15 32 33 32h12c15 0 24 9 24 22v190c0 124 82 186 177 186c99 0 178 -63 178 -192v-41c0 -18 -14 -32 -32 -32h-50c-18 0 -33 14 -33 32v39
c0 61 -25 86 -63 86z" />
    <glyph glyph-name="section" unicode="&#xa7;" horiz-adv-x="457" 
d="M413 378v-60c0 -79 -21 -109 -68 -137c-12 -8 -16 -12 -16 -21c0 -8 4 -13 13 -20c34 -25 51 -40 51 -111v-32c0 -84 -52 -167 -163 -167c-89 0 -159 66 -159 162v11c0 17 14 32 32 32h47c18 0 32 -14 32 -32v-14c0 -36 21 -57 52 -57c26 0 51 19 51 50v33
c0 49 -20 66 -58 81l-63 25c-84 33 -110 75 -110 163v43c0 87 17 120 68 151c9 4 15 11 15 21c0 6 -3 12 -10 17c-33 33 -51 37 -51 112v41c0 55 34 163 161 163c106 0 157 -72 159 -160v-12c0 -17 -15 -32 -32 -32h-48c-18 0 -32 14 -32 32v12c0 33 -22 54 -52 54
c-25 0 -50 -20 -50 -51v-34c0 -44 20 -62 59 -76l81 -34c68 -29 90 -75 91 -153zM303 293v85c0 45 -39 75 -82 75c-33 0 -59 -25 -59 -65v-103c0 -48 41 -76 82 -76s59 31 59 84z" />
    <glyph glyph-name="bullet" unicode="&#x2022;" horiz-adv-x="549" 
d="M188 336v108c0 18 14 32 32 32h108c18 0 32 -14 32 -32v-108c0 -18 -14 -32 -32 -32h-108c-18 0 -32 14 -32 32z" />
    <glyph glyph-name="paragraph" unicode="&#xb6;" horiz-adv-x="617" 
d="M259 -95v400c0 13 -9 23 -22 23c-117 0 -175 86 -175 203v87c0 110 56 207 180 207h282c14 0 25 -11 25 -25v-45c0 -14 -11 -25 -25 -25h-14c-13 0 -22 -9 -22 -22v-802c0 -14 -11 -25 -25 -25h-27c-14 0 -25 11 -25 25v802c0 13 -9 22 -22 22h-31c-13 0 -22 -9 -22 -22
v-803c0 -14 -11 -25 -25 -25h-27c-14 0 -25 11 -25 25z" />
    <glyph glyph-name="germandbls" unicode="&#xdf;" horiz-adv-x="457" 
d="M301 192v166c0 56 -14 70 -37 76c-15 4 -28 17 -28 31v51c0 15 11 26 27 30c29 7 38 34 38 75v6c0 68 -23 99 -67 99c-49 0 -69 -31 -69 -99v-602c0 -14 -11 -25 -25 -25h-62c-14 0 -25 11 -25 25v618c0 127 84 189 181 189s179 -59 179 -186c0 -70 -7 -101 -36 -130
l-8 -8c-6 -6 -8 -11 -8 -16s2 -10 8 -16l8 -8c26 -26 36 -60 36 -106v-181c0 -107 -40 -181 -144 -181h-3c-14 0 -30 11 -30 31v56c0 14 13 28 27 30c28 4 38 22 38 75z" />
    <glyph glyph-name="registered" unicode="&#xae;" horiz-adv-x="832" 
d="M416 -7c-188 0 -350 134 -350 365v111c0 236 167 363 350 363s350 -127 350 -363v-111c0 -231 -162 -365 -350 -365zM415 772c-183 0 -283 -127 -283 -329v-84c0 -197 122 -307 285 -307c161 0 283 110 283 307v84c0 202 -100 329 -285 329zM563 538v-15
c0 -49 -12 -82 -37 -106l-7 -8c-5 -5 -7 -9 -7 -14c0 -4 2 -9 7 -14l7 -8c28 -26 35 -67 35 -137v-61c0 -24 -8 -45 -32 -45h-30c-26 0 -32 21 -32 45v70c0 76 -22 105 -59 105h-23c-12 0 -21 -10 -21 -22v-153c0 -24 -6 -45 -32 -45h-24c-20 0 -38 11 -38 32v503
c0 18 16 32 32 32h102c90 0 159 -52 159 -159zM386 439h23c24 0 58 15 58 68v33c0 49 -30 68 -58 68h-15c-16 0 -30 -7 -30 -22v-126c0 -13 9 -21 22 -21z" />
    <glyph glyph-name="copyright" unicode="&#xa9;" horiz-adv-x="832" 
d="M416 -7c-188 0 -350 134 -350 365v111c0 236 167 363 350 363s350 -127 350 -363v-111c0 -231 -162 -365 -350 -365zM415 772c-183 0 -283 -127 -283 -329v-84c0 -197 122 -307 285 -307c161 0 283 110 283 307v84c0 202 -100 329 -285 329zM475 322v-21
c0 -56 -26 -77 -59 -77c-39 0 -59 25 -59 77v222c0 55 25 77 59 77c38 0 59 -24 59 -81v-4c0 -18 9 -37 30 -37h40c17 0 29 13 29 30v19c0 108 -64 167 -158 167c-89 0 -158 -58 -158 -169v-225c0 -121 79 -169 158 -169c89 0 158 58 158 167v24c0 17 -12 30 -29 30h-40
c-17 0 -30 -16 -30 -30z" />
    <glyph glyph-name="trademark" unicode="&#x2122;" horiz-adv-x="664" 
d="M608 732v-181c0 -25 -11 -35 -28 -35h-15c-20 0 -28 12 -28 35v184c0 15 -12 26 -27 26s-27 -11 -27 -26v-184c0 -24 -11 -35 -27 -35h-15c-22 0 -28 15 -28 35v184c0 15 -13 26 -28 26s-26 -11 -26 -26v-184c0 -22 -7 -35 -27 -35h-17c-19 0 -27 17 -27 34v237
c0 24 4 40 26 40c11 0 19 -10 33 -10c19 0 23 12 49 12c33 0 45 -15 61 -15c21 0 34 15 66 15c42 0 85 -27 85 -97zM78 825h142c16 0 25 -17 25 -25v-8c0 -16 -5 -30 -22 -30h-11c-15 0 -26 -4 -26 -22v-192c0 -20 -10 -32 -29 -32h-16c-19 0 -29 12 -29 32v192
c0 18 -11 22 -26 22h-11c-17 0 -22 14 -22 30v8c0 8 9 25 25 25z" />
    <glyph glyph-name="acute" unicode="&#xb4;" horiz-adv-x="458" 
d="M305 777l-118 -86c-10 -7 -20 -11 -27 -11c-16 0 -27 11 -27 25c0 6 2 11 7 18l48 77c12 20 23 25 44 25h60c17 0 27 -12 27 -24c0 -9 -3 -16 -14 -24z" />
    <glyph glyph-name="dieresis" unicode="&#xa8;" horiz-adv-x="458" 
d="M66 734v39c0 18 14 32 32 32h41c18 0 32 -14 32 -32v-39c0 -18 -14 -32 -32 -32h-41c-18 0 -32 14 -32 32zM260 734v39c0 18 14 32 32 32h41c18 0 32 -14 32 -32v-39c0 -18 -14 -32 -32 -32h-41c-18 0 -32 14 -32 32z" />
    <glyph glyph-name="AE" unicode="&#xc6;" horiz-adv-x="599" 
d="M219 829c30 0 56 -3 78 -14c3 -1 6 -2 9 -2c7 0 11 3 15 5c7 4 15 7 26 7h184c18 0 33 -14 33 -32v-48c0 -18 -15 -30 -33 -32h-92c-14 0 -24 -10 -24 -23v-196c0 -13 10 -23 24 -23h82c18 0 33 -14 33 -32v-48c0 -18 -15 -32 -33 -32h-82c-14 0 -24 -10 -24 -23v-202
c0 -13 10 -23 24 -23h92c18 0 33 -14 33 -32v-47c0 -18 -15 -32 -33 -32h-198c-18 0 -33 14 -33 32v308c0 12 -10 22 -23 22h-87c-15 0 -23 -11 -23 -22v-308c0 -18 -14 -32 -32 -32h-51c-18 0 -32 14 -32 32v605c0 128 73 192 167 192zM300 490v138c0 67 -23 96 -66 96
c-42 0 -67 -27 -67 -96v-138c0 -10 8 -22 23 -22h87c13 0 23 10 23 22z" />
    <glyph glyph-name="Oslash" unicode="&#xd8;" 
d="M167 645v-219c0 -11 8 -20 19 -20c8 0 15 4 19 12l69 163c11 27 23 59 23 87c0 33 -30 56 -63 56c-42 0 -67 -31 -67 -79zM300 180v219c0 11 -8 20 -19 20c-8 0 -15 -4 -19 -12l-69 -163c-11 -27 -23 -59 -23 -87c0 -33 30 -56 63 -56c42 0 67 31 67 79zM52 205v444
c0 118 77 183 181 183c40 0 74 -11 102 -29l5 -3c3 -2 8 -4 13 -4c9 0 16 6 20 15l3 6c6 12 16 18 27 18c17 0 31 -13 31 -29c0 -7 -2 -13 -6 -21l-19 -45c-3 -8 -6 -16 -6 -23c0 -4 0 -10 3 -20l3 -9c5 -15 6 -38 6 -68v-444c0 -118 -77 -183 -181 -183
c-40 0 -74 11 -102 29l-5 3c-3 2 -8 4 -13 4c-9 0 -16 -6 -20 -15l-3 -6c-6 -12 -16 -18 -27 -18c-17 0 -31 13 -31 29c0 7 2 13 6 21l19 45c3 8 6 16 6 23c0 4 0 10 -3 20l-3 9c-5 15 -6 38 -6 68z" />
    <glyph glyph-name="plusminus" unicode="&#xb1;" horiz-adv-x="549" 
d="M219 183v124c0 14 -10 21 -23 22h-107c-15 0 -33 9 -33 32v42c0 18 14 32 32 32h108c13 1 23 8 23 22v124c0 17 8 32 32 32h47c18 0 32 -14 32 -32v-123c0 -14 10 -22 23 -23h107c22 0 33 -14 33 -32v-42c0 -18 -14 -32 -32 -32h-108c-13 -1 -23 -8 -23 -22v-124
c0 -16 -8 -32 -32 -32h-47c-18 0 -32 14 -32 32zM92 108h364c18 0 32 -14 32 -32v-44c0 -18 -14 -32 -32 -32h-364c-18 0 -32 14 -32 32v44c0 18 14 32 32 32z" />
    <glyph glyph-name="yen" unicode="&#xa5;" 
d="M415 793v-116c0 -99 -27 -155 -102 -188l-5 -2c-10 -4 -19 -11 -19 -22c0 -12 11 -22 23 -22h75c17 0 34 -8 34 -32v-37c0 -24 -20 -32 -32 -32h-77c-16 0 -23 -7 -23 -22v-6c0 -12 8 -22 24 -22h71c21 0 36 -9 36 -32v-38c0 -25 -19 -32 -35 -32h-72
c-16 0 -24 -7 -24 -22v-136c0 -22 -14 -32 -32 -32h-47c-24 0 -32 15 -32 32v136c0 15 -7 22 -24 22h-80c-11 0 -27 6 -27 32v38c0 24 20 32 32 32h75c18 0 24 9 24 23v5c0 15 -7 22 -24 22h-73c-10 0 -35 7 -35 32v33c0 27 15 36 36 36h72c13 0 24 10 24 22
c0 11 -8 18 -19 22c-77 38 -107 84 -107 190v116c0 16 12 32 33 32h50c24 0 32 -18 32 -33v-131c0 -46 21 -79 67 -79c37 0 66 24 66 79v131c0 17 6 33 32 33h51c18 0 32 -14 32 -32z" />
    <glyph glyph-name="mu" unicode="&#xb5;" horiz-adv-x="457" 
d="M52 -133v736c0 18 14 32 32 32h48c18 0 32 -14 32 -32v-419c0 -59 26 -85 66 -85c38 0 66 27 66 85v419c0 18 14 32 32 32h47c18 0 32 -14 32 -32v-423c0 -132 -91 -183 -162 -183c-31 0 -48 9 -63 9c-14 0 -19 -13 -19 -22c0 -11 1 -19 1 -28v-89c0 -18 -14 -32 -32 -32
h-48c-18 0 -32 14 -32 32z" />
    <glyph glyph-name="ordfeminine" unicode="&#xaa;" horiz-adv-x="382" 
d="M238 475v58c0 15 -6 31 -33 31h-15c-25 0 -47 -18 -47 -54v-28c0 -32 24 -50 51 -50c21 0 44 13 44 43zM179 350c-77 0 -133 51 -133 139c0 79 34 145 141 145h28c14 0 23 10 23 23v38c0 35 -19 54 -46 54c-20 0 -42 -12 -46 -42c-3 -14 3 -43 -32 -43h-37
c-19 0 -30 13 -30 32c0 69 55 136 145 136c81 0 143 -58 143 -141v-310c0 -21 -16 -31 -33 -31c-8 0 -16 3 -23 9l-10 6c-6 5 -11 5 -17 5c-21 0 -40 -20 -73 -20z" />
    <glyph glyph-name="ordmasculine" unicode="&#xba;" horiz-adv-x="392" 
d="M148 686v-192c0 -31 16 -58 48 -58s48 27 48 58v192c0 31 -16 58 -48 58s-48 -27 -48 -58zM52 491v198c0 87 66 143 144 143s144 -56 144 -143v-198c0 -87 -66 -143 -144 -143s-144 56 -144 143z" />
    <glyph glyph-name="ae" unicode="&#xe6;" horiz-adv-x="687" 
d="M397 450v-35c0 -18 12 -22 19 -22h86c11 0 24 3 24 23v30c0 59 -23 90 -64 90c-37 0 -65 -24 -65 -86zM222 98c36 0 65 23 65 80v67c0 28 -9 33 -32 33h-31c-45 0 -66 -30 -66 -76v-23c0 -55 25 -81 64 -81zM462 -7c-37 0 -73 10 -99 30l-7 6c-6 5 -11 8 -18 8
c-6 0 -11 -3 -17 -8l-7 -6c-27 -21 -60 -30 -92 -30c-93 0 -175 64 -175 182v31c0 86 56 169 168 169h50c13 0 22 10 22 23v50c0 58 -21 88 -64 88c-35 0 -63 -25 -63 -82v-5c0 -18 -14 -32 -32 -32h-46c-17 0 -31 15 -31 33v20c0 109 81 172 172 172c32 0 65 -9 92 -30
l7 -6c6 -5 11 -8 17 -8c7 0 12 3 18 8l7 6c26 20 59 30 96 30c108 0 175 -83 175 -187v-122c0 -30 -18 -38 -37 -38h-179c-13 0 -22 -9 -22 -22v-104c4 -51 32 -71 65 -71c37 0 64 25 64 86c0 18 12 34 32 34h46c16 0 31 -15 31 -32v-7c0 -107 -59 -186 -173 -186z" />
    <glyph glyph-name="oslash" unicode="&#xf8;" horiz-adv-x="458" 
d="M282 503c0 9 -3 16 -10 22c-9 8 -25 14 -42 14c-18 0 -34 -6 -46 -18c-14 -14 -20 -34 -20 -61v-135c0 -11 8 -20 19 -20c7 0 14 5 18 13l76 166c3 7 5 13 5 19zM407 437v-237c0 -86 -18 -135 -64 -171c-28 -23 -68 -36 -113 -36c-40 0 -65 8 -84 17l-5 3
c-3 2 -8 3 -13 3c-9 0 -16 -4 -21 -13c-6 -12 -15 -18 -26 -18c-16 0 -31 9 -31 26c0 7 3 15 7 23l10 21c5 8 6 19 6 26c0 4 -2 15 -4 20c-9 20 -17 54 -17 96v238c0 85 18 134 64 170c29 23 68 37 114 37c39 0 65 -8 83 -18l5 -2c4 -2 9 -4 14 -4c9 0 15 4 20 13
c7 13 16 19 26 19c16 0 32 -10 32 -26c0 -8 -3 -16 -7 -24l-11 -20c-5 -9 -6 -20 -6 -26c0 -5 3 -15 4 -20c10 -20 17 -55 17 -97zM296 309c0 11 -8 20 -19 20c-8 0 -14 -4 -18 -12l-76 -166c-4 -8 -6 -14 -6 -19c0 -9 4 -17 11 -23c9 -8 24 -13 41 -13c18 0 35 6 48 18
c13 14 19 34 19 61v134z" />
    <glyph glyph-name="questiondown" unicode="&#xbf;" horiz-adv-x="451" 
d="M287 629v-55c0 -18 -14 -32 -32 -32h-54c-18 0 -32 14 -32 32v55c0 18 14 32 32 32h54c18 0 32 -14 32 -32zM280 438c1 -18 3 -44 3 -61c0 -44 -15 -81 -44 -125l-34 -52c-28 -43 -46 -77 -46 -142v-37c0 -50 22 -84 69 -84c31 0 64 15 64 97v19c0 22 10 41 32 41h50
c17 0 33 -14 33 -32v-46c0 -105 -71 -187 -179 -187c-104 0 -184 65 -184 189v51c0 64 15 104 56 171l45 73c26 42 29 73 30 93l1 25c1 21 11 37 33 37h39c17 0 30 -12 32 -30z" />
    <glyph glyph-name="exclamdown" unicode="&#xa1;" horiz-adv-x="240" 
d="M61 -26l9 462c0 18 14 32 32 32h34c17 0 32 -14 32 -32c3 -153 6 -309 8 -462v-107c0 -18 -14 -32 -32 -32h-51c-18 0 -32 14 -32 32v107zM60 574v54c0 18 14 32 32 32h55c18 0 32 -14 32 -32v-54c0 -18 -14 -32 -32 -32h-55c-18 0 -32 14 -32 32z" />
    <glyph glyph-name="logicalnot" unicode="&#xac;" horiz-adv-x="549" 
d="M475 439v-216c0 -15 -8 -22 -24 -22h-49c-14 0 -23 7 -23 22v116c0 15 -8 22 -24 22h-290c-16 0 -23 7 -23 22v56c0 12 7 22 23 22h386c16 0 24 -7 24 -22z" />
    <glyph glyph-name="florin" unicode="&#x192;" horiz-adv-x="368" 
d="M247 591c0 -13 7 -23 21 -23h20c18 0 30 -14 30 -31v-44c0 -18 -12 -30 -30 -30h-40c-14 0 -23 -11 -25 -24l-66 -444c-18 -124 -86 -160 -187 -160c-18 0 -30 13 -30 31v47c0 17 12 31 30 31h12c45 2 59 21 65 63l64 432c0 13 -7 24 -21 24h-20c-18 0 -30 14 -30 31v44
c0 18 13 30 30 30h40c15 0 23 11 25 24l17 106c18 109 91 130 187 130c20 0 33 -13 33 -31v-47c0 -17 -12 -31 -31 -31h-19c-49 0 -59 -23 -66 -62l-3 -18c-4 -22 -6 -39 -6 -48z" />
    <glyph glyph-name="guillemotleft" unicode="&#xab;" horiz-adv-x="430" 
d="M30 395c0 9 4 18 12 26l88 95c14 15 25 19 35 20c12 0 24 -9 24 -24c0 -7 -4 -15 -7 -22l-35 -77c-3 -6 -5 -12 -5 -18s2 -12 5 -18l35 -78c3 -7 7 -15 7 -21c0 -15 -12 -24 -24 -24c-8 0 -14 1 -23 9l-12 11l-88 94c-8 8 -12 18 -12 27zM226 395c0 9 4 18 12 26l88 95
c14 15 25 19 35 20c12 0 24 -9 24 -24c0 -7 -4 -15 -7 -22l-35 -77c-3 -6 -5 -12 -5 -18s2 -12 5 -18l35 -78c3 -7 7 -15 7 -21c0 -15 -12 -24 -24 -24c-8 0 -14 1 -23 9l-12 11l-88 94c-8 8 -12 18 -12 27z" />
    <glyph glyph-name="guillemotright" unicode="&#xbb;" horiz-adv-x="430" 
d="M204 395c0 -9 -4 -19 -12 -27l-93 -99c-10 -11 -23 -15 -30 -15c-12 0 -24 9 -24 24c0 6 4 14 7 21l35 78c3 6 5 12 5 18s-2 12 -5 18l-35 77c-3 7 -7 15 -7 22c0 15 12 24 24 24c9 0 18 -2 30 -15l93 -100c8 -8 12 -17 12 -26zM400 395c0 -9 -4 -19 -12 -27l-93 -99
c-10 -11 -23 -15 -30 -15c-12 0 -24 9 -24 24c0 6 4 14 7 21l35 78c3 6 5 12 5 18s-2 12 -5 18l-35 77c-3 7 -7 15 -7 22c0 15 12 24 24 24c9 0 18 -2 30 -15l93 -100c8 -8 12 -17 12 -26z" />
    <glyph glyph-name="ellipsis" unicode="&#x2026;" horiz-adv-x="684" 
d="M55 32v55c0 18 14 32 32 32h53c18 0 32 -14 32 -32v-55c0 -18 -14 -32 -32 -32h-53c-18 0 -32 14 -32 32zM283 32v55c0 18 14 32 32 32h53c18 0 32 -14 32 -32v-55c0 -18 -14 -32 -32 -32h-53c-18 0 -32 14 -32 32zM511 32v55c0 18 14 32 32 32h53c18 0 32 -14 32 -32
v-55c0 -18 -14 -32 -32 -32h-53c-18 0 -32 14 -32 32z" />
    <glyph glyph-name="OE" unicode="&#x152;" horiz-adv-x="599" 
d="M300 186v453c0 62 -30 85 -66 85c-39 0 -67 -26 -67 -85v-453c0 -60 27 -86 67 -86c36 0 66 23 66 86zM532 0h-180c-14 0 -27 6 -34 6c-23 0 -55 -9 -84 -9c-48 0 -87 15 -120 40l-19 18c-27 31 -43 70 -43 132v450c0 131 83 191 182 191c30 0 58 -9 84 -9c9 0 21 6 34 6
h180c16 0 32 -15 32 -32v-48c0 -22 -21 -32 -45 -32h-80c-14 0 -23 -10 -23 -23v-196c0 -13 9 -23 23 -23h70c23 0 45 -8 45 -32v-48c0 -24 -22 -32 -45 -32h-70c-14 0 -23 -10 -23 -23v-202c0 -13 9 -23 23 -23h80c25 0 45 -7 45 -32v-47c0 -18 -15 -32 -32 -32z" />
    <glyph glyph-name="oe" unicode="&#x153;" horiz-adv-x="692" 
d="M291 449c0 31 -6 52 -19 66c-11 14 -28 21 -46 21s-34 -7 -47 -21c-11 -13 -17 -33 -17 -60v-282c0 -21 6 -40 17 -53c11 -12 27 -20 47 -20c16 0 32 5 44 16s21 28 21 53v280zM530 451c0 31 -6 52 -18 66c-13 12 -28 19 -46 19s-35 -7 -47 -21s-18 -34 -18 -65v-35
c0 -14 9 -22 22 -22h84c13 0 23 10 23 23v35zM641 457v-124c0 -19 -16 -38 -37 -38h-181c-12 0 -22 -9 -22 -22v-89c0 -31 6 -51 18 -65s29 -21 47 -21c17 0 33 7 46 19c12 14 18 36 18 69c0 18 15 32 33 32h47c17 0 31 -14 31 -32v-7c0 -64 -19 -106 -51 -137
c-31 -30 -74 -49 -124 -49c-38 0 -74 6 -98 30l-7 7c-5 5 -11 8 -17 8c-7 0 -13 -3 -18 -8l-7 -7c-24 -24 -58 -30 -95 -30c-48 0 -90 18 -121 49c-32 31 -51 73 -51 139v276c0 113 81 186 178 186c33 0 66 -10 89 -30l8 -7c6 -6 12 -8 19 -8s13 2 19 8l8 7
c23 20 56 30 89 30c97 0 179 -73 179 -186z" />
    <glyph glyph-name="endash" unicode="&#x2013;" horiz-adv-x="549" 
d="M92 399h364c18 0 32 -14 32 -32v-44c0 -18 -14 -32 -32 -32h-364c-18 0 -32 14 -32 32v44c0 18 14 32 32 32z" />
    <glyph glyph-name="emdash" unicode="&#x2014;" horiz-adv-x="1000" 
d="M87 401h825c18 0 32 -14 32 -32v-48c0 -18 -14 -32 -32 -32h-825c-18 0 -32 14 -32 32v48c0 18 14 32 32 32z" />
    <glyph glyph-name="quotedblleft" unicode="&#x201c;" horiz-adv-x="430" 
d="M167 770l-15 -13c-9 -8 -13 -17 -13 -25c0 -11 6 -19 17 -23l7 -3c11 -5 17 -15 17 -32v-40c0 -18 -15 -32 -32 -32h-54c-21 0 -32 17 -32 37v50c0 45 9 84 36 109l21 19c10 9 20 15 31 15c17 0 33 -19 33 -33c0 -12 -5 -20 -16 -29zM355 770l-15 -13
c-9 -8 -13 -17 -13 -25c0 -11 6 -19 17 -23l7 -3c11 -5 17 -15 17 -32v-40c0 -18 -15 -32 -32 -32h-54c-21 0 -32 17 -32 37v50c0 45 9 84 36 109l21 19c10 9 20 15 31 15c17 0 33 -19 33 -33c0 -12 -5 -20 -16 -29z" />
    <glyph glyph-name="quotedblright" unicode="&#x201d;" horiz-adv-x="430" 
d="M90 670c9 8 13 17 13 25c0 11 -6 19 -17 23l-7 3c-11 5 -17 15 -17 32v40c0 18 15 32 32 32h54c21 0 32 -17 32 -37v-50c0 -45 -9 -84 -36 -109l-21 -19c-11 -10 -20 -15 -31 -15c-17 0 -33 19 -33 33c0 12 5 20 16 29zM278 670c9 8 13 17 13 25c0 11 -6 19 -17 23l-7 3
c-11 5 -17 15 -17 32v40c0 18 15 32 32 32h54c21 0 32 -17 32 -37v-50c0 -45 -9 -84 -36 -109l-21 -19c-11 -10 -20 -15 -31 -15c-17 0 -33 19 -33 33c0 12 5 20 16 29z" />
    <glyph glyph-name="quoteleft" unicode="&#x2018;" horiz-adv-x="222" 
d="M157 770l-15 -13c-9 -8 -13 -17 -13 -25c0 -11 6 -19 17 -23l7 -3c11 -5 17 -15 17 -32v-40c0 -18 -15 -32 -32 -32h-54c-21 0 -32 17 -32 37v50c0 45 9 84 36 109l21 19c10 9 20 15 31 15c17 0 33 -19 33 -33c0 -12 -5 -20 -16 -29z" />
    <glyph glyph-name="quoteright" unicode="&#x2019;" horiz-adv-x="222" 
d="M80 670c9 8 13 17 13 25c0 11 -6 19 -17 23l-7 3c-11 5 -17 15 -17 32v40c0 18 15 32 32 32h54c21 0 32 -17 32 -37v-50c0 -45 -9 -84 -36 -109l-21 -19c-11 -10 -20 -15 -31 -15c-17 0 -33 19 -33 33c0 12 5 20 16 29z" />
    <glyph glyph-name="divide" unicode="&#xf7;" horiz-adv-x="549" 
d="M216 513v55c0 18 14 32 32 32h53c18 0 32 -14 32 -32v-55c0 -18 -14 -32 -32 -32h-53c-18 0 -32 14 -32 32zM216 122v55c0 18 14 32 32 32h53c18 0 32 -14 32 -32v-55c0 -18 -14 -32 -32 -32h-53c-18 0 -32 14 -32 32zM92 399h364c18 0 32 -14 32 -32v-44
c0 -18 -14 -32 -32 -32h-364c-18 0 -32 14 -32 32v44c0 18 14 32 32 32z" />
    <glyph glyph-name="fraction" unicode="&#x2044;" horiz-adv-x="200" 
d="M-31 37l198 768c4 17 12 22 26 22c2 0 18 0 19 -1c14 -1 21 -8 21 -20c0 -5 -3 -18 -7 -36l-195 -751c-5 -17 -10 -21 -24 -21c-3 0 -20 0 -22 1c-13 1 -18 8 -18 20c0 5 0 11 2 18z" />
    <glyph glyph-name="guilsinglleft" unicode="&#x2039;" horiz-adv-x="222" 
d="M31 395c0 9 4 18 12 26l88 95c14 15 25 19 35 20c12 0 24 -9 24 -24c0 -7 -4 -15 -7 -22l-35 -77c-3 -6 -5 -12 -5 -18s2 -12 5 -18l35 -78c3 -7 7 -15 7 -21c0 -15 -12 -24 -24 -24c-8 0 -14 1 -23 9l-12 11l-88 94c-8 8 -12 18 -12 27z" />
    <glyph glyph-name="guilsinglright" unicode="&#x203a;" horiz-adv-x="222" 
d="M190 395c0 -9 -4 -19 -12 -27l-93 -99c-10 -11 -23 -15 -30 -15c-12 0 -24 9 -24 24c0 6 4 14 7 21l35 78c3 6 5 12 5 18s-2 12 -5 18l-35 77c-3 7 -7 15 -7 22c0 15 12 24 24 24c9 0 18 -2 30 -15l93 -100c8 -8 12 -17 12 -26z" />
    <glyph glyph-name="daggerdbl" unicode="&#x2021;" horiz-adv-x="457" 
d="M180 222v259c0 13 -10 21 -23 21h-92c-21 0 -33 14 -33 32v31c0 20 12 31 33 31h92c13 0 23 9 23 22v175c0 18 13 32 33 32h31c21 0 33 -13 33 -32v-175c0 -13 10 -22 24 -22h91c21 0 33 -14 33 -31v-31c0 -20 -12 -32 -33 -32h-91c-14 0 -24 -8 -24 -21v-260
c0 -13 10 -21 23 -21h91c21 0 33 -14 33 -31v-31c0 -20 -12 -32 -33 -32h-91c-13 0 -23 -9 -23 -22v-174c0 -18 -13 -32 -33 -32h-31c-21 0 -33 12 -33 32v174c0 13 -10 22 -24 22h-91c-21 0 -33 14 -33 32v31c0 20 12 31 33 31h91c14 1 24 9 24 22z" />
    <glyph glyph-name="periodcentered" unicode="&#xb7;" horiz-adv-x="222" 
d="M52 403v55c0 18 14 32 32 32h53c18 0 32 -14 32 -32v-55c0 -18 -14 -32 -32 -32h-53c-18 0 -32 14 -32 32z" />
    <glyph glyph-name="quotesinglbase" unicode="&#x201a;" horiz-adv-x="222" 
d="M80 -36c9 8 13 17 13 25c0 11 -6 19 -17 23l-7 3c-11 5 -17 15 -17 32v40c0 18 15 32 32 32h54c21 0 32 -17 32 -37v-50c0 -45 -9 -84 -36 -109l-21 -19c-11 -10 -20 -15 -31 -15c-17 0 -33 19 -33 33c0 12 5 20 16 29z" />
    <glyph glyph-name="quotedblbase" unicode="&#x201e;" horiz-adv-x="430" 
d="M90 -36c9 8 13 17 13 25c0 11 -6 19 -17 23l-7 3c-11 5 -17 15 -17 32v40c0 18 15 32 32 32h54c21 0 32 -17 32 -37v-50c0 -45 -9 -84 -36 -109l-21 -19c-11 -10 -20 -15 -31 -15c-17 0 -33 19 -33 33c0 12 5 20 16 29zM278 -36c9 8 13 17 13 25c0 11 -6 19 -17 23l-7 3
c-11 5 -17 15 -17 32v40c0 18 15 32 32 32h54c21 0 32 -17 32 -37v-50c0 -45 -9 -84 -36 -109l-21 -19c-11 -10 -20 -15 -31 -15c-17 0 -33 19 -33 33c0 12 5 20 16 29z" />
    <glyph glyph-name="perthousand" unicode="&#x2030;" horiz-adv-x="1127" 
d="M217 61l283 738c6 19 15 26 32 26h29c19 0 29 -9 29 -27c0 -7 -4 -17 -8 -28l-285 -744c-6 -20 -15 -26 -32 -26h-28c-19 0 -29 9 -29 27c0 5 2 17 9 34zM347 684v-81c0 -49 -17 -80 -41 -104l-9 -9c-24 -18 -54 -29 -89 -29c-76 0 -138 48 -138 146v77
c0 99 63 148 138 148c77 0 139 -52 139 -148zM164 691v-84c0 -46 16 -65 44 -65c22 0 45 14 45 50v108c-2 35 -22 49 -45 49c-24 0 -44 -16 -44 -58zM729 216v-77c0 -52 -15 -84 -41 -109l-9 -8c-24 -19 -54 -29 -89 -29c-76 0 -138 47 -138 146v77c0 50 15 85 40 108l10 9
c24 18 54 30 88 30c77 0 139 -52 139 -147zM546 222v-83c0 -48 17 -65 44 -65c21 0 45 13 45 49v108c-2 35 -22 50 -45 50c-25 0 -44 -17 -44 -59zM1056 216v-77c0 -52 -15 -84 -41 -109l-9 -8c-24 -19 -54 -29 -89 -29c-76 0 -138 47 -138 146v77c0 50 15 85 40 108l10 9
c24 18 54 30 88 30c77 0 139 -52 139 -147zM873 222v-83c0 -48 17 -65 44 -65c21 0 45 13 45 49v108c-2 35 -22 50 -45 50c-25 0 -44 -17 -44 -59z" />
    <glyph glyph-name="dotlessi" unicode="&#x131;" horiz-adv-x="223" 
d="M55 32v571c0 18 14 32 32 32h48c18 0 32 -14 32 -32v-571c0 -18 -14 -32 -32 -32h-48c-18 0 -32 14 -32 32z" />
    <glyph glyph-name="circumflex" unicode="&#x2c6;" horiz-adv-x="458" 
d="M229 731c-16 0 -25 -10 -52 -29l-17 -12c-9 -6 -16 -8 -22 -8c-14 0 -26 12 -26 26c0 7 2 13 11 23l62 73c12 14 24 28 44 28s32 -14 44 -28l62 -73c9 -10 11 -16 11 -23c0 -14 -12 -26 -26 -26c-6 0 -13 2 -22 8l-17 12c-27 19 -36 29 -52 29z" />
    <glyph glyph-name="tilde" unicode="&#x2dc;" horiz-adv-x="458" 
d="M207 731l-8 7c-8 6 -12 10 -21 10s-18 -8 -20 -15l-3 -6c-5 -11 -15 -18 -28 -18c-14 0 -28 10 -28 27c0 45 45 86 86 86c23 0 45 -5 64 -21c12 -10 20 -17 30 -17c11 0 16 7 20 15l3 6c5 10 15 18 28 18c14 0 28 -10 28 -27c0 -46 -45 -87 -84 -87c-25 0 -46 6 -67 22z
" />
    <glyph glyph-name="macron" unicode="&#xaf;" horiz-adv-x="458" 
d="M361 763v-18c0 -22 -16 -28 -42 -28h-180c-25 0 -42 5 -42 28v18c0 24 17 28 42 28h180c25 0 42 -5 42 -28z" />
    <glyph glyph-name="breve" unicode="&#x2d8;" horiz-adv-x="458" 
d="M229 681c-56 0 -105 34 -105 96c0 29 4 53 32 53c7 0 14 -2 19 -6c7 -4 11 -13 11 -24v-4c0 -25 20 -40 42 -40c23 0 43 15 44 40v4c0 10 2 18 8 23c5 5 12 7 22 7c28 0 31 -24 31 -53c0 -62 -47 -96 -104 -96z" />
    <glyph glyph-name="dotaccent" unicode="&#x2d9;" horiz-adv-x="458" 
d="M171 744v49c0 18 14 32 32 32h51c18 0 32 -14 32 -32v-49c0 -18 -14 -32 -32 -32h-51c-18 0 -32 14 -32 32z" />
    <glyph glyph-name="ring" unicode="&#x2da;" horiz-adv-x="458" 
d="M198 750c0 -17 14 -31 31 -31s30 14 30 31s-13 31 -30 31s-31 -14 -31 -31zM146 750c0 46 37 82 83 82c45 0 82 -36 82 -82s-37 -81 -82 -81c-46 0 -83 35 -83 81z" />
    <glyph glyph-name="cedilla" unicode="&#xb8;" horiz-adv-x="458" 
d="M303 -97c0 -49 -45 -74 -88 -74c-17 0 -61 0 -61 27c0 36 64 11 64 47c0 35 -64 9 -64 47c0 17 19 26 61 26c43 0 88 -24 88 -73z" />
    <glyph glyph-name="hungarumlaut" unicode="&#x2dd;" horiz-adv-x="458" 
d="M244 778l-114 -88c-10 -7 -19 -11 -26 -11c-16 0 -28 11 -28 25c0 6 1 11 7 17l53 79c12 19 23 25 44 25h49c16 0 27 -13 27 -24c0 -9 -3 -15 -12 -23zM409 778l-114 -88c-10 -7 -19 -11 -26 -11c-16 0 -28 11 -28 25c0 6 1 11 7 17l53 79c12 19 23 25 44 25h49
c16 0 27 -13 27 -24c0 -9 -3 -15 -12 -23z" />
    <glyph glyph-name="ogonek" unicode="&#x2db;" horiz-adv-x="458" 
d="M152 -102c0 21 9 39 36 60c19 12 45 19 72 19c22 0 45 -3 45 -23c0 -40 -69 -19 -69 -51c0 -14 11 -23 27 -23h8c0 1 6 1 10 1c14 0 24 -8 24 -22c0 -21 -28 -29 -58 -29h-12c-53 2 -83 30 -83 68z" />
    <glyph glyph-name="caron" unicode="&#x2c7;" horiz-adv-x="458" 
d="M229 783c16 0 25 10 52 29l17 12c9 6 16 8 22 8c14 0 26 -12 26 -26c0 -7 -2 -13 -11 -23l-62 -73c-12 -14 -24 -28 -44 -28s-32 14 -44 28l-62 73c-9 10 -11 16 -11 23c0 14 12 26 26 26c6 0 13 -2 22 -8l17 -12c27 -19 36 -29 52 -29z" />
    <glyph glyph-name="Euro" unicode="&#x20ac;" horiz-adv-x="498" 
d="M265 724c-36 0 -66 -23 -66 -86v-78c0 -12 10 -22 23 -22h74c17 0 33 -15 33 -32v-35c0 -17 -16 -32 -33 -32h-75c-16 0 -23 -7 -23 -22v-1c0 -12 8 -24 24 -24h74c17 0 32 -15 32 -32v-35c0 -17 -15 -32 -32 -32h-65c-21 0 -33 -4 -33 -23c0 -25 1 -59 1 -84v-11
c2 -53 32 -74 66 -74c36 0 66 22 66 85v49c0 18 15 32 33 32h50c18 0 32 -14 32 -32v-51c0 -130 -83 -191 -181 -191c-99 0 -181 67 -181 191v76c0 20 -4 33 -23 33h-8c-20 0 -37 12 -37 32v35c0 18 13 32 32 32h13c16 0 23 12 23 23v2c0 15 -7 22 -23 22h-14
c-17 0 -32 13 -32 32v35c0 21 18 32 38 32h8c12 0 23 10 23 20v94c0 119 84 180 181 180c99 0 181 -63 181 -192v-41c0 -18 -14 -32 -32 -32h-50c-18 0 -33 14 -33 32v39c0 61 -28 86 -66 86z" />
    <glyph glyph-name="Eth" unicode="&#xd0;" 
d="M236 0h-152c-18 0 -32 14 -32 32v321c0 40 -53 10 -53 53v20c0 43 53 12 53 52v315c0 18 14 32 32 32h153c100 0 178 -65 178 -184v-458c0 -113 -75 -183 -179 -183zM231 108c61 0 69 50 69 112v397c0 72 -24 100 -68 100h-43c-14 0 -22 -10 -22 -23v-216
c0 -46 58 -3 58 -52v-20c0 -50 -58 -7 -58 -53v-222c0 -14 8 -23 23 -23h41z" />
    <glyph glyph-name="notequal" unicode="&#x2260;" horiz-adv-x="549" 
d="M488 466v-44c0 -17 -15 -32 -32 -32h-85c-16 0 -24 -6 -29 -20l-10 -30c-2 -7 -3 -13 -3 -17c0 -12 8 -22 23 -22h104c19 0 32 -15 32 -33v-45c0 -18 -14 -32 -32 -32h-156c-15 0 -24 -6 -29 -20l-25 -71c-8 -22 -25 -27 -40 -27h-46c-20 0 -29 11 -29 24c0 3 0 11 3 18
l11 34c3 8 6 16 6 22c0 11 -7 20 -23 20h-38c-19 0 -29 16 -29 32v46c0 17 14 32 32 32h87c15 0 23 6 28 19l10 32c2 5 3 11 3 15c0 13 -7 23 -22 23h-106c-19 0 -32 15 -32 33v43c0 18 15 32 32 32h156c15 0 24 6 28 19l22 70c7 22 23 29 38 29h49c20 0 29 -12 29 -26
c0 -3 0 -10 -2 -17l-10 -33c-4 -10 -5 -17 -5 -21c0 -13 8 -21 23 -21h37c19 -1 30 -16 30 -32z" />
    <glyph glyph-name="infinity" unicode="&#x221e;" horiz-adv-x="578" 
d="M348 342c0 -32 49 -61 67 -61c24 0 47 20 47 61s-23 60 -47 60s-47 -22 -64 -50c-2 -4 -3 -7 -3 -10zM115 342c0 -41 22 -61 46 -61c16 0 68 29 68 61c0 3 -1 6 -4 10c-17 28 -40 50 -64 50s-46 -19 -46 -60zM312 246l-6 7c-6 6 -11 9 -17 9s-12 -3 -17 -9l-6 -7
c-29 -33 -64 -55 -111 -55c-68 0 -134 42 -134 151c0 108 66 150 134 150c47 0 83 -22 110 -55l6 -6c6 -6 11 -9 17 -9s12 3 17 9l6 6c29 33 63 55 110 55c69 0 135 -42 135 -150c0 -109 -66 -151 -135 -151c-47 0 -82 22 -109 55z" />
    <glyph glyph-name="lessequal" unicode="&#x2264;" horiz-adv-x="549" 
d="M108 111h334c18 0 32 -14 32 -32v-47c0 -18 -14 -32 -32 -32h-334c-18 0 -32 14 -32 32v47c0 18 14 32 32 32zM75 333v46c0 38 16 53 56 66l272 87c28 9 33 10 40 10c18 0 31 -8 31 -30v-33c0 -28 -12 -33 -45 -43l-191 -58c-13 -4 -23 -9 -23 -22s10 -18 23 -22l191 -58
c33 -10 45 -15 45 -43v-33c0 -22 -13 -30 -31 -30c-7 0 -12 1 -40 10l-272 87c-40 13 -56 28 -56 66z" />
    <glyph glyph-name="greaterequal" unicode="&#x2265;" horiz-adv-x="549" 
d="M107 111h334c18 0 32 -14 32 -32v-47c0 -18 -14 -32 -32 -32h-334c-18 0 -32 14 -32 32v47c0 18 14 32 32 32zM474 379v-46c0 -38 -16 -53 -56 -66l-272 -87c-28 -9 -33 -10 -40 -10c-18 0 -31 8 -31 30v33c0 28 12 33 45 43l191 58c13 4 23 9 23 22s-10 18 -23 22
l-191 58c-33 10 -45 15 -45 43v33c0 22 13 30 31 30c7 0 12 -1 40 -10l272 -87c40 -13 56 -28 56 -66z" />
    <glyph glyph-name="pi" unicode="&#x3c0;" horiz-adv-x="548" 
d="M316 529h-85c-14 0 -24 -10 -24 -23v-475c0 -18 -13 -31 -30 -31h-51c-18 0 -30 12 -30 31v474c0 18 -12 22 -26 24c-21 3 -48 0 -48 31v44c0 17 10 31 32 31h440c22 0 32 -15 32 -31v-44c0 -38 -38 -27 -60 -33c-9 -3 -15 -8 -15 -21v-360c0 -21 10 -35 31 -38l15 -2
c14 -2 23 -13 23 -31v-48c0 -17 -12 -30 -33 -30h-10c-95 0 -138 53 -138 151v358c0 13 -9 23 -23 23z" />
    <glyph glyph-name="approxequal" unicode="&#x2248;" horiz-adv-x="549" 
d="M86 184c-17 0 -28 10 -28 28v42c0 31 73 57 129 57c71 0 113 -31 172 -31c49 0 74 26 104 26c17 0 28 -10 28 -28v-42c0 -30 -70 -56 -130 -56c-71 0 -114 31 -174 31c-19 0 -38 -4 -51 -9l-19 -8c-11 -5 -23 -10 -31 -10zM86 384c-17 0 -28 10 -28 28v42
c0 31 73 57 129 57c71 0 113 -31 172 -31c49 0 74 26 104 26c17 0 28 -10 28 -28v-42c0 -30 -70 -56 -130 -56c-71 0 -114 31 -174 31c-19 0 -38 -4 -51 -9l-19 -8c-11 -5 -23 -10 -31 -10z" />
    <glyph glyph-name="lozenge" unicode="&#x25ca;" horiz-adv-x="549" 
d="M49 413c0 7 3 13 7 21l197 385c4 7 12 13 22 13c9 0 18 -6 21 -13l197 -385c4 -8 7 -14 7 -21s-4 -14 -7 -21l-197 -386c-3 -7 -12 -13 -21 -13c-10 0 -18 6 -22 13c-66 128 -131 257 -197 386c-3 7 -7 14 -7 21zM136 412c0 -6 3 -13 8 -22l110 -217c4 -6 12 -12 21 -12
c8 0 17 6 20 12c35 73 74 144 110 217c5 9 8 16 8 22c0 8 -3 14 -8 24l-110 215c-3 6 -12 12 -20 12c-9 0 -18 -9 -21 -15l-110 -212c-5 -10 -8 -16 -8 -24z" />
    <glyph glyph-name="eth" unicode="&#xf0;" horiz-adv-x="457" 
d="M407 466v-290c0 -98 -67 -183 -177 -183c-95 0 -178 65 -178 185v259c0 109 55 185 162 185h21c13 0 22 9 23 21c0 12 -19 44 -37 44c-6 0 -13 -3 -20 -9l-12 -12c-6 -5 -12 -8 -19 -8c-5 0 -11 2 -16 7l-14 12c-4 3 -6 8 -6 13c0 6 3 13 9 18l5 4c6 4 9 10 9 16
c0 7 -5 14 -17 19l-27 12c-11 5 -16 14 -16 21c0 5 0 11 4 17l15 23c4 7 11 11 20 11c21 0 75 -37 94 -37c21 0 39 37 60 37c5 0 11 -2 16 -6l14 -13c4 -4 7 -9 7 -14c0 -17 -31 -25 -31 -45c0 -6 2 -11 8 -16c74 -60 103 -152 103 -271zM230 99c44 0 64 29 64 99v229
c0 68 -21 99 -65 99s-65 -31 -65 -99v-229c0 -70 20 -99 66 -99z" />
    <glyph glyph-name="Lslash" unicode="&#x141;" horiz-adv-x="357" 
d="M166 402v-267c0 -13 10 -23 24 -23h109c17 0 36 -9 36 -32v-46c0 -16 -9 -34 -33 -34h-218c-25 0 -32 20 -32 45v286c0 13 -6 20 -17 20c-4 0 -9 -1 -15 -4l-4 -2c-5 -3 -10 -4 -14 -4c-15 0 -26 12 -26 31v18c0 15 6 25 22 34l35 18c15 8 19 20 19 33v314
c0 24 13 36 32 36h50c20 0 32 -9 32 -36v-243c0 -13 6 -20 17 -20c4 0 9 1 15 4l24 13c7 3 13 5 19 5c14 0 25 -11 25 -29v-19c0 -21 -12 -29 -42 -45l-39 -20c-15 -8 -19 -20 -19 -33z" />
    <glyph glyph-name="braceleft" unicode="{" horiz-adv-x="404" 
d="M372 902v-26c0 -17 -12 -29 -30 -29l-12 -1c-28 -1 -46 -9 -60 -22c-15 -13 -23 -31 -23 -88v-165c0 -76 -9 -133 -49 -165l-10 -7c-6 -5 -8 -10 -8 -15s2 -11 8 -15l10 -8c40 -31 49 -89 49 -165v-165c0 -56 8 -75 23 -88c14 -13 32 -20 60 -21l12 -1
c18 -1 30 -13 30 -30v-26c0 -18 -12 -30 -30 -30h-13c-122 2 -185 69 -185 193v198c0 70 -28 107 -73 107h-6c-23 0 -34 15 -34 34v34c0 18 11 33 34 33h6c46 0 73 37 73 107v198c0 124 63 192 185 194h13c18 0 30 -12 30 -31z" />
    <glyph glyph-name="bar" unicode="|" horiz-adv-x="200" 
d="M148 903v-1036c0 -18 -14 -32 -32 -32h-33c-18 0 -32 14 -32 32v1036c0 18 14 32 32 32h33c18 0 32 -14 32 -32z" />
    <glyph glyph-name="braceright" unicode="}" horiz-adv-x="404" 
d="M31 876v26c0 19 12 31 30 31h13c122 -2 185 -70 185 -194v-198c0 -70 27 -107 73 -107h6c23 0 34 -15 34 -33v-34c0 -19 -11 -34 -34 -34h-6c-45 0 -73 -37 -73 -107v-198c0 -124 -63 -191 -185 -193h-13c-18 0 -30 12 -30 30v26c0 17 12 29 30 30l12 1c28 1 46 8 60 21
c15 13 23 32 23 88v165c0 76 9 134 49 165l10 8c6 4 8 10 8 15s-2 10 -8 15l-10 7c-40 32 -49 89 -49 165v165c0 57 -8 75 -23 88c-14 13 -32 23 -60 23h-12c-18 0 -30 12 -30 29z" />
    <glyph glyph-name="Adieresis" unicode="&#xc4;" 
d="M300 459v169c0 67 -23 96 -66 96c-42 0 -67 -27 -67 -96v-169c0 -10 8 -22 23 -22h87c13 0 23 10 23 22zM52 32v608c0 129 82 192 182 192c99 0 181 -63 181 -192v-608c0 -18 -14 -32 -32 -32h-50c-18 0 -33 14 -33 32v278c0 12 -10 22 -23 22h-87c-15 0 -23 -12 -23 -22
v-278c0 -18 -14 -32 -32 -32h-51c-18 0 -32 14 -32 32zM85 910v40c0 18 14 32 32 32h41c18 0 32 -14 32 -32v-40c0 -18 -14 -32 -32 -32h-41c-18 0 -32 14 -32 32zM279 910v40c0 18 14 32 32 32h41c18 0 32 -14 32 -32v-40c0 -18 -14 -32 -32 -32h-41c-18 0 -32 14 -32 32z
" />
    <glyph glyph-name="Aring" unicode="&#xc5;" 
d="M300 459v169c0 67 -23 96 -66 96c-42 0 -67 -27 -67 -96v-169c0 -10 8 -22 23 -22h87c13 0 23 10 23 22zM52 32v608c0 129 82 192 182 192c99 0 181 -63 181 -192v-608c0 -18 -14 -32 -32 -32h-50c-18 0 -33 14 -33 32v278c0 12 -10 22 -23 22h-87c-15 0 -23 -12 -23 -22
v-278c0 -18 -14 -32 -32 -32h-51c-18 0 -32 14 -32 32zM203 940c0 -17 14 -31 31 -31s31 14 31 31s-14 31 -31 31s-31 -14 -31 -31zM151 940c0 46 37 82 83 82s83 -36 83 -82s-37 -81 -83 -81s-83 35 -83 81z" />
    <glyph glyph-name="Ccedilla" unicode="&#xc7;" horiz-adv-x="462" 
d="M300 186v49c0 18 15 32 33 32h50c18 0 32 -14 32 -32v-51c0 -130 -83 -191 -181 -191c-99 0 -182 61 -182 191v456c0 129 82 192 182 192c99 0 181 -63 181 -192v-41c0 -18 -14 -32 -32 -32h-50c-18 0 -33 14 -33 32v39c0 61 -28 86 -66 86c-39 0 -67 -26 -67 -86v-452
c0 -55 24 -85 67 -85c36 0 66 22 66 85zM309 -97c0 -49 -45 -74 -88 -74c-17 0 -61 0 -61 27c0 36 64 11 64 47c0 35 -64 9 -64 47c0 17 19 26 61 26c43 0 88 -24 88 -73z" />
    <glyph glyph-name="Eacute" unicode="&#xc9;" horiz-adv-x="367" 
d="M300 0h-216c-18 0 -32 14 -32 32v761c0 18 14 32 32 32h216c18 0 32 -14 32 -32v-48c0 -18 -14 -30 -32 -32h-110c-14 0 -23 -10 -23 -23v-196c0 -13 9 -23 23 -23h100c18 0 32 -14 32 -32v-48c0 -18 -14 -32 -32 -32h-100c-14 0 -23 -10 -23 -23v-201
c0 -13 9 -23 23 -23h110c18 0 32 -14 32 -32v-48c0 -18 -14 -32 -32 -32zM277 963l-118 -86c-10 -7 -20 -11 -27 -11c-16 0 -27 11 -27 25c0 6 2 11 7 18l48 77c12 20 23 25 44 25h60c17 0 27 -12 27 -24c0 -9 -3 -16 -14 -24z" />
    <glyph glyph-name="Ntilde" unicode="&#xd1;" 
d="M300 32v607c0 30 -5 51 -18 65c-13 13 -30 20 -48 20c-19 0 -36 -7 -48 -20c-14 -14 -19 -35 -19 -65v-607c0 -18 -14 -32 -32 -32h-51c-18 0 -32 14 -32 32v748c0 19 4 29 12 36c7 8 18 13 30 13c13 0 22 -5 32 -11l5 -3c8 -4 16 -7 25 -7c11 0 26 8 44 14
c16 5 34 9 54 9c39 0 83 -17 108 -42c38 -34 53 -83 53 -142v-615c0 -18 -14 -32 -32 -32h-50c-18 0 -33 14 -33 32zM213 899l-8 7c-8 6 -12 10 -21 10s-17 -8 -20 -15l-3 -6c-5 -11 -15 -18 -28 -18c-14 0 -28 10 -28 27c0 45 45 86 86 86c23 0 44 -5 63 -21
c12 -10 21 -17 31 -17c11 0 16 7 20 15l3 6c5 10 15 18 28 18c14 0 28 -10 28 -27c0 -46 -45 -87 -84 -87c-25 0 -46 6 -67 22z" />
    <glyph glyph-name="Odieresis" unicode="&#xd6;" 
d="M167 638v-452c0 -59 28 -85 67 -85c36 0 66 22 66 85v452c0 63 -30 86 -66 86c-40 0 -67 -26 -67 -86zM415 640v-456c0 -126 -77 -191 -181 -191c-99 0 -182 61 -182 191v456c0 129 81 192 182 192c99 0 181 -63 181 -192zM85 910v40c0 18 14 32 32 32h41
c18 0 32 -14 32 -32v-40c0 -18 -14 -32 -32 -32h-41c-18 0 -32 14 -32 32zM279 910v40c0 18 14 32 32 32h41c18 0 32 -14 32 -32v-40c0 -18 -14 -32 -32 -32h-41c-18 0 -32 14 -32 32z" />
    <glyph glyph-name="Udieresis" unicode="&#xdc;" 
d="M300 186v607c0 18 15 32 33 32h50c18 0 32 -14 32 -32v-615c0 -119 -77 -185 -181 -185c-98 0 -182 59 -182 187v613c0 18 14 32 32 32h51c18 0 32 -14 32 -32v-607c0 -58 26 -85 67 -85c38 0 66 24 66 85zM85 910v40c0 18 14 32 32 32h41c18 0 32 -14 32 -32v-40
c0 -18 -14 -32 -32 -32h-41c-18 0 -32 14 -32 32zM279 910v40c0 18 14 32 32 32h41c18 0 32 -14 32 -32v-40c0 -18 -14 -32 -32 -32h-41c-18 0 -32 14 -32 32z" />
    <glyph glyph-name="aacute" unicode="&#xe1;" horiz-adv-x="453" 
d="M158 202v-27c0 -47 26 -77 68 -77c37 0 63 23 63 77v80c0 19 -18 23 -34 23h-32c-42 0 -65 -30 -65 -76zM401 34c0 -25 -17 -39 -39 -39c-12 0 -22 5 -31 11l-4 3c-7 6 -13 8 -23 8c-17 0 -38 -24 -94 -24c-84 0 -165 73 -165 186v28c0 87 63 168 167 168h54
c14 0 23 10 23 23v42c0 66 -22 96 -65 96c-36 0 -65 -25 -65 -82v-5c0 -18 -14 -32 -32 -32h-47c-18 0 -32 15 -32 33v22c0 109 83 170 176 170c97 0 177 -64 177 -189v-419zM303 777l-118 -86c-10 -7 -20 -11 -27 -11c-16 0 -27 11 -27 25c0 6 2 11 7 18l48 77
c12 20 23 25 44 25h60c17 0 27 -12 27 -24c0 -9 -3 -16 -14 -24z" />
    <glyph glyph-name="agrave" unicode="&#xe0;" horiz-adv-x="453" 
d="M158 202v-27c0 -47 26 -77 68 -77c37 0 63 23 63 77v80c0 19 -18 23 -34 23h-32c-42 0 -65 -30 -65 -76zM401 34c0 -25 -17 -39 -39 -39c-12 0 -22 5 -31 11l-4 3c-7 6 -13 8 -23 8c-17 0 -38 -24 -94 -24c-84 0 -165 73 -165 186v28c0 87 63 168 167 168h54
c14 0 23 10 23 23v42c0 66 -22 96 -65 96c-36 0 -65 -25 -65 -82v-5c0 -18 -14 -32 -32 -32h-47c-18 0 -32 15 -32 33v22c0 109 83 170 176 170c97 0 177 -64 177 -189v-419zM233 692l-122 87c-9 7 -11 14 -11 22c0 12 10 24 27 24h58c21 0 32 -5 44 -24l51 -78
c5 -7 7 -12 7 -17c0 -14 -11 -26 -27 -26c-7 0 -17 4 -27 12z" />
    <glyph glyph-name="acircumflex" unicode="&#xe2;" horiz-adv-x="453" 
d="M158 202v-27c0 -47 26 -77 68 -77c37 0 63 23 63 77v80c0 19 -18 23 -34 23h-32c-42 0 -65 -30 -65 -76zM401 34c0 -25 -17 -39 -39 -39c-12 0 -22 5 -31 11l-4 3c-7 6 -13 8 -23 8c-17 0 -38 -24 -94 -24c-84 0 -165 73 -165 186v28c0 87 63 168 167 168h54
c14 0 23 10 23 23v42c0 66 -22 96 -65 96c-36 0 -65 -25 -65 -82v-5c0 -18 -14 -32 -32 -32h-47c-18 0 -32 15 -32 33v22c0 109 83 170 176 170c97 0 177 -64 177 -189v-419zM223 731c-16 0 -25 -10 -52 -29l-17 -12c-9 -6 -16 -8 -22 -8c-14 0 -26 12 -26 26
c0 7 2 13 11 23l62 73c12 14 24 28 44 28s32 -14 44 -28l62 -73c9 -10 11 -16 11 -23c0 -14 -12 -26 -26 -26c-6 0 -13 2 -22 8l-17 12c-27 19 -36 29 -52 29z" />
    <glyph glyph-name="adieresis" unicode="&#xe4;" horiz-adv-x="453" 
d="M158 202v-27c0 -47 26 -77 68 -77c37 0 63 23 63 77v80c0 19 -18 23 -34 23h-32c-42 0 -65 -30 -65 -76zM401 34c0 -25 -17 -39 -39 -39c-12 0 -22 5 -31 11l-4 3c-7 6 -13 8 -23 8c-17 0 -38 -24 -94 -24c-84 0 -165 73 -165 186v28c0 87 63 168 167 168h54
c14 0 23 10 23 23v42c0 66 -22 96 -65 96c-36 0 -65 -25 -65 -82v-5c0 -18 -14 -32 -32 -32h-47c-18 0 -32 15 -32 33v22c0 109 83 170 176 170c97 0 177 -64 177 -189v-419zM74 734v39c0 18 14 32 32 32h41c18 0 32 -14 32 -32v-39c0 -18 -14 -32 -32 -32h-41
c-18 0 -32 14 -32 32zM268 734v39c0 18 14 32 32 32h41c18 0 32 -14 32 -32v-39c0 -18 -14 -32 -32 -32h-41c-18 0 -32 14 -32 32z" />
    <glyph glyph-name="atilde" unicode="&#xe3;" horiz-adv-x="453" 
d="M158 202v-27c0 -47 26 -77 68 -77c37 0 63 23 63 77v80c0 19 -18 23 -34 23h-32c-42 0 -65 -30 -65 -76zM401 34c0 -25 -17 -39 -39 -39c-12 0 -22 5 -31 11l-4 3c-7 6 -13 8 -23 8c-17 0 -38 -24 -94 -24c-84 0 -165 73 -165 186v28c0 87 63 168 167 168h54
c14 0 23 10 23 23v42c0 66 -22 96 -65 96c-36 0 -65 -25 -65 -82v-5c0 -18 -14 -32 -32 -32h-47c-18 0 -32 15 -32 33v22c0 109 83 170 176 170c97 0 177 -64 177 -189v-419zM202 731l-8 7c-8 6 -12 10 -21 10s-18 -8 -20 -15l-3 -6c-5 -11 -15 -18 -28 -18
c-14 0 -28 10 -28 27c0 45 45 86 86 86c23 0 45 -5 64 -21c12 -10 20 -17 30 -17c11 0 16 7 20 15l3 6c5 10 15 18 28 18c14 0 28 -10 28 -27c0 -46 -45 -87 -84 -87c-25 0 -46 6 -67 22z" />
    <glyph glyph-name="aring" unicode="&#xe5;" horiz-adv-x="453" 
d="M158 202v-27c0 -47 26 -77 68 -77c37 0 63 23 63 77v80c0 19 -18 23 -34 23h-32c-42 0 -65 -30 -65 -76zM401 34c0 -25 -17 -39 -39 -39c-12 0 -22 5 -31 11l-4 3c-7 6 -13 8 -23 8c-17 0 -38 -24 -94 -24c-84 0 -165 73 -165 186v28c0 87 63 168 167 168h54
c14 0 23 10 23 23v42c0 66 -22 96 -65 96c-36 0 -65 -25 -65 -82v-5c0 -18 -14 -32 -32 -32h-47c-18 0 -32 15 -32 33v22c0 109 83 170 176 170c97 0 177 -64 177 -189v-419zM193 750c0 -17 14 -31 31 -31s30 14 30 31s-13 31 -30 31s-31 -14 -31 -31zM141 750
c0 46 37 82 83 82c45 0 82 -36 82 -82s-37 -81 -82 -81c-46 0 -83 35 -83 81z" />
    <glyph glyph-name="ccedilla" unicode="&#xe7;" horiz-adv-x="448" 
d="M229 536c-44 0 -65 -31 -65 -99v-239c0 -70 20 -99 66 -99c38 0 64 26 64 86v7c0 18 14 32 32 32h48c18 0 32 -14 32 -32v-13c0 -122 -78 -186 -176 -186c-96 0 -178 63 -178 189v271c0 127 80 189 177 189c98 0 177 -67 177 -182v-9c0 -18 -14 -32 -32 -32h-48
c-18 0 -32 14 -32 32v3c0 44 -20 82 -65 82zM298 -97c0 -49 -45 -74 -88 -74c-17 0 -61 0 -61 27c0 36 64 11 64 47c0 35 -64 9 -64 47c0 17 19 26 61 26c43 0 88 -24 88 -73z" />
    <glyph glyph-name="eacute" unicode="&#xe9;" horiz-adv-x="457" 
d="M164 450v-35c0 -18 12 -22 23 -22h79c15 0 28 3 28 23v30c0 59 -22 90 -64 90c-37 0 -66 -24 -66 -86zM368 295h-181c-14 0 -23 -9 -23 -22v-89c0 -59 27 -86 66 -86c38 0 64 26 64 86v2c0 18 14 32 32 32h48c18 0 32 -14 32 -32v-7c0 -122 -78 -186 -176 -186
c-96 0 -178 60 -178 189v271c0 125 81 189 178 189s176 -65 176 -187v-122c0 -19 -16 -38 -38 -38zM308 777l-118 -86c-10 -7 -20 -11 -27 -11c-16 0 -27 11 -27 25c0 6 2 11 7 18l48 77c12 20 23 25 44 25h60c17 0 27 -12 27 -24c0 -9 -3 -16 -14 -24z" />
    <glyph glyph-name="egrave" unicode="&#xe8;" horiz-adv-x="457" 
d="M164 450v-35c0 -18 12 -22 23 -22h79c15 0 28 3 28 23v30c0 59 -22 90 -64 90c-37 0 -66 -24 -66 -86zM368 295h-181c-14 0 -23 -9 -23 -22v-89c0 -59 27 -86 66 -86c38 0 64 26 64 86v2c0 18 14 32 32 32h48c18 0 32 -14 32 -32v-7c0 -122 -78 -186 -176 -186
c-96 0 -178 60 -178 189v271c0 125 81 189 178 189s176 -65 176 -187v-122c0 -19 -16 -38 -38 -38zM239 692l-122 87c-9 7 -11 14 -11 22c0 12 10 24 27 24h58c21 0 32 -5 44 -24l51 -78c5 -7 7 -12 7 -17c0 -14 -11 -26 -27 -26c-7 0 -17 4 -27 12z" />
    <glyph glyph-name="ecircumflex" unicode="&#xea;" horiz-adv-x="457" 
d="M164 450v-35c0 -18 12 -22 23 -22h79c15 0 28 3 28 23v30c0 59 -22 90 -64 90c-37 0 -66 -24 -66 -86zM368 295h-181c-14 0 -23 -9 -23 -22v-89c0 -59 27 -86 66 -86c38 0 64 26 64 86v2c0 18 14 32 32 32h48c18 0 32 -14 32 -32v-7c0 -122 -78 -186 -176 -186
c-96 0 -178 60 -178 189v271c0 125 81 189 178 189s176 -65 176 -187v-122c0 -19 -16 -38 -38 -38zM229 731c-16 0 -25 -10 -52 -29l-17 -12c-9 -6 -16 -8 -22 -8c-14 0 -26 12 -26 26c0 7 2 13 11 23l62 73c12 14 24 28 44 28s32 -14 44 -28l62 -73c9 -10 11 -16 11 -23
c0 -14 -12 -26 -26 -26c-6 0 -13 2 -22 8l-17 12c-27 19 -36 29 -52 29z" />
    <glyph glyph-name="edieresis" unicode="&#xeb;" horiz-adv-x="457" 
d="M164 450v-35c0 -18 12 -22 23 -22h79c15 0 28 3 28 23v30c0 59 -22 90 -64 90c-37 0 -66 -24 -66 -86zM368 295h-181c-14 0 -23 -9 -23 -22v-89c0 -59 27 -86 66 -86c38 0 64 26 64 86v2c0 18 14 32 32 32h48c18 0 32 -14 32 -32v-7c0 -122 -78 -186 -176 -186
c-96 0 -178 60 -178 189v271c0 125 81 189 178 189s176 -65 176 -187v-122c0 -19 -16 -38 -38 -38zM80 734v39c0 18 14 32 32 32h41c18 0 32 -14 32 -32v-39c0 -18 -14 -32 -32 -32h-41c-18 0 -32 14 -32 32zM274 734v39c0 18 14 32 32 32h41c18 0 32 -14 32 -32v-39
c0 -18 -14 -32 -32 -32h-41c-18 0 -32 14 -32 32z" />
    <glyph glyph-name="iacute" unicode="&#xed;" horiz-adv-x="223" 
d="M217 777l-118 -86c-10 -7 -20 -11 -27 -11c-16 0 -27 11 -27 25c0 6 2 11 7 18l48 77c12 20 23 25 44 25h60c17 0 27 -12 27 -24c0 -9 -3 -16 -14 -24zM55 32v571c0 18 14 32 32 32h48c18 0 32 -14 32 -32v-571c0 -18 -14 -32 -32 -32h-48c-18 0 -32 14 -32 32z" />
    <glyph glyph-name="igrave" unicode="&#xec;" horiz-adv-x="223" 
d="M119 692l-122 87c-9 7 -11 14 -11 22c0 12 10 24 27 24h58c21 0 32 -5 44 -24l51 -78c5 -7 7 -12 7 -17c0 -14 -11 -26 -27 -26c-7 0 -17 4 -27 12zM55 32v571c0 18 14 32 32 32h48c18 0 32 -14 32 -32v-571c0 -18 -14 -32 -32 -32h-48c-18 0 -32 14 -32 32z" />
    <glyph glyph-name="icircumflex" unicode="&#xee;" horiz-adv-x="223" 
d="M55 32v571c0 18 14 32 32 32h48c18 0 32 -14 32 -32v-571c0 -18 -14 -32 -32 -32h-48c-18 0 -32 14 -32 32zM111 731c-16 0 -25 -10 -52 -29l-17 -12c-9 -6 -16 -8 -22 -8c-14 0 -26 12 -26 26c0 7 2 13 11 23l62 73c12 14 24 28 44 28s32 -14 44 -28l62 -73
c9 -10 11 -16 11 -23c0 -14 -12 -26 -26 -26c-6 0 -13 2 -22 8l-17 12c-27 19 -36 29 -52 29z" />
    <glyph glyph-name="idieresis" unicode="&#xef;" horiz-adv-x="223" 
d="M167 604v-574c0 -18 -12 -30 -31 -30h-50c-19 0 -31 12 -31 30v574c0 19 12 31 31 31h50c19 0 31 -12 31 -31zM-14 734v36c0 18 14 32 32 32h36c18 0 32 -14 32 -32v-36c0 -18 -14 -32 -32 -32h-36c-18 0 -32 14 -32 32zM140 734v36c0 18 14 32 32 32h36
c18 0 32 -14 32 -32v-36c0 -18 -14 -32 -32 -32h-36c-18 0 -32 14 -32 32z" />
    <glyph glyph-name="ntilde" unicode="&#xf1;" horiz-adv-x="458" 
d="M294 32v418c0 31 -6 51 -19 65c-12 14 -28 21 -46 21c-19 0 -34 -7 -47 -21s-18 -34 -18 -65v-418c0 -18 -14 -32 -32 -32h-48c-18 0 -32 14 -32 32v567c0 13 5 23 12 30c7 6 16 10 27 10c12 0 22 -5 31 -12l4 -3c7 -6 14 -9 23 -9s21 9 40 16c17 6 37 10 58 10
c38 0 76 -14 107 -43c37 -34 52 -82 52 -141v-425c0 -18 -14 -32 -32 -32h-48c-18 0 -32 14 -32 32zM208 731l-8 7c-8 6 -12 10 -21 10s-18 -8 -20 -15l-3 -6c-5 -11 -15 -18 -28 -18c-14 0 -28 10 -28 27c0 45 45 86 86 86c23 0 45 -5 64 -21c12 -10 20 -17 30 -17
c11 0 16 7 20 15l3 6c5 10 15 18 28 18c14 0 28 -10 28 -27c0 -46 -45 -87 -84 -87c-25 0 -46 6 -67 22z" />
    <glyph glyph-name="oacute" unicode="&#xf3;" horiz-adv-x="458" 
d="M230 99c44 0 64 29 64 99v239c0 68 -21 99 -65 99s-65 -31 -65 -99v-239c0 -70 20 -99 66 -99zM228 -7c-96 0 -176 63 -176 189v271c0 127 80 189 177 189s177 -62 177 -189v-271c0 -126 -80 -189 -178 -189zM308 777l-118 -86c-10 -7 -20 -11 -27 -11
c-16 0 -27 11 -27 25c0 6 2 11 7 18l48 77c12 20 23 25 44 25h60c17 0 27 -12 27 -24c0 -9 -3 -16 -14 -24z" />
    <glyph glyph-name="ograve" unicode="&#xf2;" horiz-adv-x="458" 
d="M230 99c44 0 64 29 64 99v239c0 68 -21 99 -65 99s-65 -31 -65 -99v-239c0 -70 20 -99 66 -99zM228 -7c-96 0 -176 63 -176 189v271c0 127 80 189 177 189s177 -62 177 -189v-271c0 -126 -80 -189 -178 -189zM270 692l-122 87c-9 7 -11 14 -11 22c0 12 10 24 27 24h58
c21 0 32 -5 44 -24l51 -78c5 -7 7 -12 7 -17c0 -14 -11 -26 -27 -26c-7 0 -17 4 -27 12z" />
    <glyph glyph-name="ocircumflex" unicode="&#xf4;" horiz-adv-x="458" 
d="M230 99c44 0 64 29 64 99v239c0 68 -21 99 -65 99s-65 -31 -65 -99v-239c0 -70 20 -99 66 -99zM228 -7c-96 0 -176 63 -176 189v271c0 127 80 189 177 189s177 -62 177 -189v-271c0 -126 -80 -189 -178 -189zM230 731c-16 0 -25 -10 -52 -29l-17 -12c-9 -6 -16 -8 -22 -8
c-14 0 -26 12 -26 26c0 7 2 13 11 23l62 73c12 14 24 28 44 28s32 -14 44 -28l62 -73c9 -10 11 -16 11 -23c0 -14 -12 -26 -26 -26c-6 0 -13 2 -22 8l-17 12c-27 19 -36 29 -52 29z" />
    <glyph glyph-name="odieresis" unicode="&#xf6;" horiz-adv-x="458" 
d="M230 99c44 0 64 29 64 99v239c0 68 -21 99 -65 99s-65 -31 -65 -99v-239c0 -70 20 -99 66 -99zM228 -7c-96 0 -176 63 -176 189v271c0 127 80 189 177 189s177 -62 177 -189v-271c0 -126 -80 -189 -178 -189zM80 734v39c0 18 14 32 32 32h41c18 0 32 -14 32 -32v-39
c0 -18 -14 -32 -32 -32h-41c-18 0 -32 14 -32 32zM274 734v39c0 18 14 32 32 32h41c18 0 32 -14 32 -32v-39c0 -18 -14 -32 -32 -32h-41c-18 0 -32 14 -32 32z" />
    <glyph glyph-name="otilde" unicode="&#xf5;" horiz-adv-x="458" 
d="M230 99c44 0 64 29 64 99v239c0 68 -21 99 -65 99s-65 -31 -65 -99v-239c0 -70 20 -99 66 -99zM228 -7c-96 0 -176 63 -176 189v271c0 127 80 189 177 189s177 -62 177 -189v-271c0 -126 -80 -189 -178 -189zM208 731l-8 7c-8 6 -12 10 -21 10s-18 -8 -20 -15l-3 -6
c-5 -11 -15 -18 -28 -18c-14 0 -28 10 -28 27c0 45 45 86 86 86c23 0 45 -5 64 -21c12 -10 20 -17 30 -17c11 0 16 7 20 15l3 6c5 10 15 18 28 18c14 0 28 -10 28 -27c0 -46 -45 -87 -84 -87c-25 0 -46 6 -67 22z" />
    <glyph glyph-name="uacute" unicode="&#xfa;" horiz-adv-x="458" 
d="M164 603v-419c0 -31 5 -51 18 -65s28 -21 47 -21c18 0 34 7 46 21c13 14 19 34 19 65v419c0 18 14 32 32 32h48c18 0 32 -14 32 -32v-569c0 -13 -4 -23 -11 -30s-16 -10 -27 -10c-12 0 -23 5 -32 12l-4 3c-7 6 -13 9 -22 9c-10 0 -21 -8 -40 -15c-17 -6 -36 -10 -58 -10
c-37 0 -77 14 -107 43c-37 34 -53 82 -53 141v426c0 18 14 32 32 32h48c18 0 32 -14 32 -32zM309 777l-118 -86c-10 -7 -20 -11 -27 -11c-16 0 -27 11 -27 25c0 6 2 11 7 18l48 77c12 20 23 25 44 25h60c17 0 27 -12 27 -24c0 -9 -3 -16 -14 -24z" />
    <glyph glyph-name="ugrave" unicode="&#xf9;" horiz-adv-x="458" 
d="M164 603v-419c0 -31 5 -51 18 -65s28 -21 47 -21c18 0 34 7 46 21c13 14 19 34 19 65v419c0 18 14 32 32 32h48c18 0 32 -14 32 -32v-569c0 -13 -4 -23 -11 -30s-16 -10 -27 -10c-12 0 -23 5 -32 12l-4 3c-7 6 -13 9 -22 9c-10 0 -21 -8 -40 -15c-17 -6 -36 -10 -58 -10
c-37 0 -77 14 -107 43c-37 34 -53 82 -53 141v426c0 18 14 32 32 32h48c18 0 32 -14 32 -32zM269 692l-122 87c-9 7 -11 14 -11 22c0 12 10 24 27 24h58c21 0 32 -5 44 -24l51 -78c5 -7 7 -12 7 -17c0 -14 -11 -26 -27 -26c-7 0 -17 4 -27 12z" />
    <glyph glyph-name="ucircumflex" unicode="&#xfb;" horiz-adv-x="458" 
d="M164 603v-419c0 -31 5 -51 18 -65s28 -21 47 -21c18 0 34 7 46 21c13 14 19 34 19 65v419c0 18 14 32 32 32h48c18 0 32 -14 32 -32v-569c0 -13 -4 -23 -11 -30s-16 -10 -27 -10c-12 0 -23 5 -32 12l-4 3c-7 6 -13 9 -22 9c-10 0 -21 -8 -40 -15c-17 -6 -36 -10 -58 -10
c-37 0 -77 14 -107 43c-37 34 -53 82 -53 141v426c0 18 14 32 32 32h48c18 0 32 -14 32 -32zM229 731c-16 0 -25 -10 -52 -29l-17 -12c-9 -6 -16 -8 -22 -8c-14 0 -26 12 -26 26c0 7 2 13 11 23l62 73c12 14 24 28 44 28s32 -14 44 -28l62 -73c9 -10 11 -16 11 -23
c0 -14 -12 -26 -26 -26c-6 0 -13 2 -22 8l-17 12c-27 19 -36 29 -52 29z" />
    <glyph glyph-name="udieresis" unicode="&#xfc;" horiz-adv-x="458" 
d="M164 603v-419c0 -31 5 -51 18 -65s28 -21 47 -21c18 0 34 7 46 21c13 14 19 34 19 65v419c0 18 14 32 32 32h48c18 0 32 -14 32 -32v-569c0 -13 -4 -23 -11 -30s-16 -10 -27 -10c-12 0 -23 5 -32 12l-4 3c-7 6 -13 9 -22 9c-10 0 -21 -8 -40 -15c-17 -6 -36 -10 -58 -10
c-37 0 -77 14 -107 43c-37 34 -53 82 -53 141v426c0 18 14 32 32 32h48c18 0 32 -14 32 -32zM81 734v39c0 18 14 32 32 32h41c18 0 32 -14 32 -32v-39c0 -18 -14 -32 -32 -32h-41c-18 0 -32 14 -32 32zM275 734v39c0 18 14 32 32 32h41c18 0 32 -14 32 -32v-39
c0 -18 -14 -32 -32 -32h-41c-18 0 -32 14 -32 32z" />
    <glyph glyph-name="circumflex.case" 
d="M234 917c-16 0 -25 -10 -52 -29l-17 -12c-9 -6 -16 -8 -22 -8c-14 0 -26 12 -26 26c0 7 2 13 11 23l62 73c12 14 24 28 44 28s32 -14 44 -28l62 -73c9 -10 11 -16 11 -23c0 -14 -12 -26 -26 -26c-6 0 -13 2 -22 8l-17 12c-27 19 -36 29 -52 29z" />
    <glyph glyph-name="caron.case" 
d="M234 969c16 0 25 10 52 29l17 12c9 6 16 8 22 8c14 0 26 -12 26 -26c0 -7 -2 -13 -11 -23l-62 -73c-12 -14 -24 -28 -44 -28s-32 14 -44 28l-62 73c-9 10 -11 16 -11 23c0 14 12 26 26 26c6 0 13 -2 22 -8l17 -12c27 -19 36 -29 52 -29z" />
    <glyph glyph-name="breve.case" 
d="M234 869c-55 0 -105 32 -105 95c0 28 4 53 32 53c8 0 14 -2 19 -6c7 -5 11 -13 11 -24v-5c0 -24 20 -40 43 -40c22 0 43 16 43 40v5c0 9 3 17 8 22s12 8 22 8c28 0 32 -25 32 -53c0 -63 -48 -95 -105 -95z" />
    <glyph glyph-name="dotaccent.case" 
d="M176 907v49c0 18 14 32 32 32h51c18 0 32 -14 32 -32v-49c0 -18 -14 -32 -32 -32h-51c-18 0 -32 14 -32 32z" />
    <glyph glyph-name="ring.case" 
d="M203 940c0 -17 14 -31 31 -31s31 14 31 31s-14 31 -31 31s-31 -14 -31 -31zM151 940c0 46 37 82 83 82s83 -36 83 -82s-37 -81 -83 -81s-83 35 -83 81z" />
    <glyph glyph-name="tilde.case" 
d="M212 899l-8 7c-8 6 -12 10 -21 10s-17 -8 -20 -15l-3 -6c-5 -11 -15 -18 -28 -18c-14 0 -28 10 -28 27c0 45 45 86 86 86c23 0 44 -5 63 -21c12 -10 21 -17 31 -17c11 0 16 7 20 15l3 6c5 10 15 18 28 18c14 0 28 -10 28 -27c0 -46 -45 -87 -84 -87c-25 0 -46 6 -67 22z
" />
    <glyph glyph-name="hungarumlaut.case" 
d="M436 958l-114 -88c-10 -7 -19 -11 -26 -11c-16 0 -28 11 -28 25c0 6 1 11 5 16l55 80c13 19 23 25 44 25h49c16 0 27 -13 27 -24c0 -9 -3 -15 -12 -23zM271 958l-114 -88c-10 -7 -19 -11 -26 -11c-16 0 -28 11 -28 25c0 6 2 10 7 18l53 78c12 19 23 25 44 25h49
c16 0 27 -13 27 -24c0 -9 -3 -15 -12 -23z" />
    <glyph glyph-name="caron.salt" 
d="M192 793c0 19 11 32 30 32h32c18 0 30 -12 30 -33c0 -63 -60 -157 -94 -157c-15 0 -28 10 -28 28c0 7 3 16 7 24c15 35 23 68 23 106z" />
    <glyph glyph-name="grave.case" 
d="M273 878l-122 87c-9 7 -11 14 -11 22c0 12 10 24 27 24h58c21 0 32 -5 44 -24l51 -78c5 -7 7 -12 7 -17c0 -14 -11 -26 -27 -26c-7 0 -17 4 -27 12z" />
    <glyph glyph-name="acute.case" 
d="M315 963l-118 -86c-10 -7 -20 -11 -27 -11c-16 0 -27 11 -27 25c0 6 2 11 7 18l48 77c12 20 23 25 44 25h60c17 0 27 -12 27 -24c0 -9 -3 -16 -14 -24z" />
    <glyph glyph-name="dieresis.case" 
d="M84 910v40c0 18 14 32 32 32h41c18 0 32 -14 32 -32v-40c0 -18 -14 -32 -32 -32h-41c-18 0 -32 14 -32 32zM278 910v40c0 18 14 32 32 32h41c18 0 32 -14 32 -32v-40c0 -18 -14 -32 -32 -32h-41c-18 0 -32 14 -32 32z" />
    <glyph glyph-name="uni02C9" unicode="&#x2c9;" 
d="M358 940v-12c0 -23 -17 -28 -40 -28h-178c-20 0 -31 11 -31 28v12c0 19 12 28 31 28h178c23 0 40 -4 40 -28z" />
    <glyph glyph-name="macron.case" 
d="M358 940v-12c0 -23 -17 -28 -40 -28h-178c-20 0 -31 11 -31 28v12c0 19 12 28 31 28h178c23 0 40 -4 40 -28z" />
    <glyph glyph-name="commaaccent.salt" horiz-adv-x="549" 
d="M261 685h-28c-15 0 -24 8 -24 22v9c0 54 55 116 97 116c12 0 24 -8 24 -24c0 -9 -6 -16 -12 -22c-18 -20 -30 -37 -30 -69c0 -20 -7 -32 -27 -32z" />
    <glyph glyph-name="Amacron" unicode="&#x100;" 
d="M300 459v169c0 67 -23 96 -66 96c-42 0 -67 -27 -67 -96v-169c0 -10 8 -22 23 -22h87c13 0 23 10 23 22zM52 32v608c0 129 82 192 182 192c99 0 181 -63 181 -192v-608c0 -18 -14 -32 -32 -32h-50c-18 0 -33 14 -33 32v278c0 12 -10 22 -23 22h-87c-15 0 -23 -12 -23 -22
v-278c0 -18 -14 -32 -32 -32h-51c-18 0 -32 14 -32 32zM358 940v-12c0 -23 -17 -28 -40 -28h-178c-20 0 -31 11 -31 28v12c0 19 12 28 31 28h178c23 0 40 -4 40 -28z" />
    <glyph glyph-name="amacron" unicode="&#x101;" horiz-adv-x="451" 
d="M158 202v-27c0 -47 26 -77 68 -77c37 0 63 23 63 77v80c0 19 -18 23 -34 23h-32c-42 0 -65 -30 -65 -76zM401 34c0 -25 -17 -39 -39 -39c-12 0 -22 5 -31 11l-4 3c-7 6 -13 8 -23 8c-17 0 -38 -24 -94 -24c-84 0 -165 73 -165 186v28c0 87 63 168 167 168h54
c14 0 23 10 23 23v42c0 66 -22 96 -65 96c-36 0 -65 -25 -65 -82v-5c0 -18 -14 -32 -32 -32h-47c-18 0 -32 15 -32 33v22c0 109 83 170 176 170c97 0 177 -64 177 -189v-419zM355 763v-18c0 -22 -16 -28 -42 -28h-180c-25 0 -42 5 -42 28v18c0 24 17 28 42 28h180
c25 0 42 -5 42 -28z" />
    <glyph glyph-name="Abreve" unicode="&#x102;" 
d="M300 459v169c0 67 -23 96 -66 96c-42 0 -67 -27 -67 -96v-169c0 -10 8 -22 23 -22h87c13 0 23 10 23 22zM52 32v608c0 129 82 192 182 192c99 0 181 -63 181 -192v-608c0 -18 -14 -32 -32 -32h-50c-18 0 -33 14 -33 32v278c0 12 -10 22 -23 22h-87c-15 0 -23 -12 -23 -22
v-278c0 -18 -14 -32 -32 -32h-51c-18 0 -32 14 -32 32zM234 869c-55 0 -105 32 -105 95c0 28 4 53 32 53c8 0 14 -2 19 -6c7 -5 11 -13 11 -24v-5c0 -24 20 -40 43 -40c22 0 43 16 43 40v5c0 9 3 17 8 22s12 8 22 8c28 0 32 -25 32 -53c0 -63 -48 -95 -105 -95z" />
    <glyph glyph-name="abreve" unicode="&#x103;" horiz-adv-x="453" 
d="M158 202v-27c0 -47 26 -77 68 -77c37 0 63 23 63 77v80c0 19 -18 23 -34 23h-32c-42 0 -65 -30 -65 -76zM401 34c0 -25 -17 -39 -39 -39c-12 0 -22 5 -31 11l-4 3c-7 6 -13 8 -23 8c-17 0 -38 -24 -94 -24c-84 0 -165 73 -165 186v28c0 87 63 168 167 168h54
c14 0 23 10 23 23v42c0 66 -22 96 -65 96c-36 0 -65 -25 -65 -82v-5c0 -18 -14 -32 -32 -32h-47c-18 0 -32 15 -32 33v22c0 109 83 170 176 170c97 0 177 -64 177 -189v-419zM224 681c-56 0 -105 34 -105 96c0 29 4 53 32 53c7 0 14 -2 19 -6c7 -4 11 -13 11 -24v-4
c0 -25 20 -40 42 -40c23 0 43 15 44 40v4c0 10 2 18 8 23c5 5 12 7 22 7c28 0 31 -24 31 -53c0 -62 -47 -96 -104 -96z" />
    <glyph glyph-name="Aogonek" unicode="&#x104;" 
d="M300 459v169c0 67 -23 96 -66 96c-42 0 -67 -27 -67 -96v-169c0 -10 8 -22 23 -22h87c13 0 23 10 23 22zM317 -4c0 16 -17 12 -17 36v278c0 12 -10 22 -23 22h-87c-15 0 -23 -12 -23 -22v-278c0 -18 -14 -32 -32 -32h-51c-18 0 -32 14 -32 32v608c0 129 82 192 182 192
s181 -65 181 -192v-612c0 -39 -39 -66 -61 -87c-8 -8 -14 -15 -14 -21c0 -13 13 -22 25 -22c14 0 21 15 39 15c11 0 28 -10 28 -32c0 -32 -50 -52 -91 -52c-55 0 -89 24 -89 63c0 34 23 55 42 72c13 11 23 21 23 32z" />
    <glyph glyph-name="aogonek" unicode="&#x105;" horiz-adv-x="453" 
d="M289 253c0 19 -18 23 -34 23h-33c-41 0 -65 -32 -65 -76v-25c0 -47 24 -77 66 -77c35 0 66 22 66 82v73zM413 -121c0 -26 -43 -50 -92 -50c-51 0 -85 22 -85 61c0 24 12 41 29 55l18 14c14 11 19 18 19 27s-6 17 -20 17c-10 0 -21 -4 -37 -7c-10 -2 -22 -3 -36 -3
c-84 0 -165 73 -165 186v25c0 93 71 169 167 169h55c14 0 23 10 23 23v44c0 66 -23 96 -66 96c-36 0 -64 -26 -66 -76v-9c0 -18 -14 -32 -32 -32h-47c-17 0 -32 15 -32 32v21c6 109 84 170 177 170c99 0 178 -66 178 -189v-422c0 -16 -5 -36 -18 -48l-40 -36
c-16 -14 -20 -20 -20 -31c0 -14 12 -22 24 -22c13 0 21 12 39 12c12 0 27 -9 27 -27z" />
    <glyph glyph-name="Cacute" unicode="&#x106;" horiz-adv-x="462" 
d="M300 186v49c0 18 15 32 33 32h50c18 0 32 -14 32 -32v-51c0 -130 -83 -191 -181 -191c-99 0 -182 61 -182 191v456c0 129 82 192 182 192c99 0 181 -63 181 -192v-41c0 -18 -14 -32 -32 -32h-50c-18 0 -33 14 -33 32v39c0 61 -28 86 -66 86c-39 0 -67 -26 -67 -86v-452
c0 -55 24 -85 67 -85c36 0 66 22 66 85zM321 963l-118 -86c-10 -7 -20 -11 -27 -11c-16 0 -27 11 -27 25c0 6 2 11 7 18l48 77c12 20 23 25 44 25h60c17 0 27 -12 27 -24c0 -9 -3 -16 -14 -24z" />
    <glyph glyph-name="cacute" unicode="&#x107;" horiz-adv-x="448" 
d="M229 536c-44 0 -65 -31 -65 -99v-239c0 -70 20 -99 66 -99c38 0 64 26 64 86v7c0 18 14 32 32 32h48c18 0 32 -14 32 -32v-13c0 -122 -78 -186 -176 -186c-96 0 -178 63 -178 189v271c0 127 80 189 177 189c98 0 177 -67 177 -182v-9c0 -18 -14 -32 -32 -32h-48
c-18 0 -32 14 -32 32v3c0 44 -20 82 -65 82zM308 777l-118 -86c-10 -7 -20 -11 -27 -11c-16 0 -27 11 -27 25c0 6 2 11 7 18l48 77c12 20 23 25 44 25h60c17 0 27 -12 27 -24c0 -9 -3 -16 -14 -24z" />
    <glyph glyph-name="Ccircumflex" unicode="&#x108;" horiz-adv-x="462" 
d="M300 186v49c0 18 15 32 33 32h50c18 0 32 -14 32 -32v-51c0 -130 -83 -191 -181 -191c-99 0 -182 61 -182 191v456c0 129 82 192 182 192c99 0 181 -63 181 -192v-41c0 -18 -14 -32 -32 -32h-50c-18 0 -33 14 -33 32v39c0 61 -28 86 -66 86c-39 0 -67 -26 -67 -86v-452
c0 -55 24 -85 67 -85c36 0 66 22 66 85zM234 917c-16 0 -25 -10 -52 -29l-17 -12c-9 -6 -16 -8 -22 -8c-14 0 -26 12 -26 26c0 7 2 13 11 23l62 73c12 14 24 28 44 28s32 -14 44 -28l62 -73c9 -10 11 -16 11 -23c0 -14 -12 -26 -26 -26c-6 0 -13 2 -22 8l-17 12
c-27 19 -36 29 -52 29z" />
    <glyph glyph-name="ccircumflex" unicode="&#x109;" horiz-adv-x="448" 
d="M229 536c-44 0 -65 -31 -65 -99v-239c0 -70 20 -99 66 -99c38 0 64 26 64 86v7c0 18 14 32 32 32h48c18 0 32 -14 32 -32v-13c0 -122 -78 -186 -176 -186c-96 0 -178 63 -178 189v271c0 127 80 189 177 189c98 0 177 -67 177 -182v-9c0 -18 -14 -32 -32 -32h-48
c-18 0 -32 14 -32 32v3c0 44 -20 82 -65 82zM233 731c-16 0 -25 -10 -52 -29l-17 -12c-9 -6 -16 -8 -22 -8c-14 0 -26 12 -26 26c0 7 2 13 11 23l62 73c12 14 24 28 44 28s32 -14 44 -28l62 -73c9 -10 11 -16 11 -23c0 -14 -12 -26 -26 -26c-6 0 -13 2 -22 8l-17 12
c-27 19 -36 29 -52 29z" />
    <glyph glyph-name="Cdotaccent" unicode="&#x10a;" horiz-adv-x="462" 
d="M300 186v49c0 18 15 32 33 32h50c18 0 32 -14 32 -32v-51c0 -130 -83 -191 -181 -191c-99 0 -182 61 -182 191v456c0 129 82 192 182 192c99 0 181 -63 181 -192v-41c0 -18 -14 -32 -32 -32h-50c-18 0 -33 14 -33 32v39c0 61 -28 86 -66 86c-39 0 -67 -26 -67 -86v-452
c0 -55 24 -85 67 -85c36 0 66 22 66 85zM177 907v49c0 18 14 32 32 32h51c18 0 32 -14 32 -32v-49c0 -18 -14 -32 -32 -32h-51c-18 0 -32 14 -32 32z" />
    <glyph glyph-name="cdotaccent" unicode="&#x10b;" horiz-adv-x="448" 
d="M229 536c-44 0 -65 -31 -65 -99v-239c0 -70 20 -99 66 -99c38 0 64 26 64 86v7c0 18 14 32 32 32h48c18 0 32 -14 32 -32v-13c0 -122 -78 -186 -176 -186c-96 0 -178 63 -178 189v271c0 127 80 189 177 189c98 0 177 -67 177 -182v-9c0 -18 -14 -32 -32 -32h-48
c-18 0 -32 14 -32 32v3c0 44 -20 82 -65 82zM172 744v49c0 18 14 32 32 32h51c18 0 32 -14 32 -32v-49c0 -18 -14 -32 -32 -32h-51c-18 0 -32 14 -32 32z" />
    <glyph glyph-name="Ccaron" unicode="&#x10c;" horiz-adv-x="462" 
d="M300 186v49c0 18 15 32 33 32h50c18 0 32 -14 32 -32v-51c0 -130 -83 -191 -181 -191c-99 0 -182 61 -182 191v456c0 129 82 192 182 192c99 0 181 -63 181 -192v-41c0 -18 -14 -32 -32 -32h-50c-18 0 -33 14 -33 32v39c0 61 -28 86 -66 86c-39 0 -67 -26 -67 -86v-452
c0 -55 24 -85 67 -85c36 0 66 22 66 85zM234 969c16 0 25 10 52 29l17 12c9 6 16 8 22 8c14 0 26 -12 26 -26c0 -7 -2 -13 -11 -23l-62 -73c-12 -14 -24 -28 -44 -28s-32 14 -44 28l-62 73c-9 10 -11 16 -11 23c0 14 12 26 26 26c6 0 13 -2 22 -8l17 -12
c27 -19 36 -29 52 -29z" />
    <glyph glyph-name="ccaron" unicode="&#x10d;" horiz-adv-x="448" 
d="M229 536c-44 0 -65 -31 -65 -99v-239c0 -70 20 -99 66 -99c38 0 64 26 64 86v7c0 18 14 32 32 32h48c18 0 32 -14 32 -32v-13c0 -122 -78 -186 -176 -186c-96 0 -178 63 -178 189v271c0 127 80 189 177 189c98 0 177 -67 177 -182v-9c0 -18 -14 -32 -32 -32h-48
c-18 0 -32 14 -32 32v3c0 44 -20 82 -65 82zM229 783c16 0 25 10 52 29l17 12c9 6 16 8 22 8c14 0 26 -12 26 -26c0 -7 -2 -13 -11 -23l-62 -73c-12 -14 -24 -28 -44 -28s-32 14 -44 28l-62 73c-9 10 -11 16 -11 23c0 14 12 26 26 26c6 0 13 -2 22 -8l17 -12
c27 -19 36 -29 52 -29z" />
    <glyph glyph-name="Dcaron" unicode="&#x10e;" 
d="M167 695v-565c0 -15 7 -22 23 -22h41c34 0 69 22 69 89v431c0 66 -32 89 -68 89h-42c-16 0 -23 -8 -23 -22zM233 0h-149c-18 0 -32 14 -32 32v761c0 18 14 32 32 32h150c99 0 181 -63 181 -192v-442c0 -128 -82 -191 -182 -191zM232 969c16 0 25 10 52 29l17 12
c9 6 16 8 22 8c14 0 26 -12 26 -26c0 -7 -2 -13 -11 -23l-62 -73c-12 -14 -24 -28 -44 -28s-32 14 -44 28l-62 73c-9 10 -11 16 -11 23c0 14 12 26 26 26c6 0 13 -2 22 -8l17 -12c27 -19 36 -29 52 -29z" />
    <glyph glyph-name="dcaron" unicode="&#x10f;" horiz-adv-x="596" 
d="M266 3c-14 -5 -34 -10 -56 -10c-77 0 -161 58 -161 190v266c0 121 70 189 160 189c26 0 44 -5 58 -5c12 0 25 11 25 25c0 16 -1 23 -1 36v99c0 18 14 32 32 32h48c18 0 32 -14 32 -32v-759c0 -29 -18 -40 -39 -40c-12 0 -22 6 -31 12l-4 3c-7 6 -14 8 -22 8
c-10 0 -22 -7 -41 -14zM225 99c46 0 66 29 66 99v239c0 68 -21 99 -65 99s-65 -31 -65 -99v-239c0 -70 20 -99 64 -99zM481 793c0 -38 -8 -71 -23 -106c-4 -8 -7 -17 -7 -24c0 -18 13 -28 28 -28c34 0 94 94 94 157c0 21 -12 33 -30 33h-32c-19 0 -30 -13 -30 -32z" />
    <glyph glyph-name="Dcroat" unicode="&#x110;" 
d="M236 0h-152c-18 0 -32 14 -32 32v321c0 40 -53 10 -53 53v20c0 43 53 12 53 52v315c0 18 14 32 32 32h153c100 0 178 -65 178 -184v-458c0 -113 -75 -183 -179 -183zM231 108c61 0 69 50 69 112v397c0 72 -24 100 -68 100h-43c-14 0 -22 -10 -22 -23v-216
c0 -46 58 -3 58 -52v-20c0 -50 -58 -7 -58 -53v-222c0 -14 8 -23 23 -23h41z" />
    <glyph glyph-name="dcroat" unicode="&#x111;" horiz-adv-x="458" 
d="M293 184v253c0 67 -22 99 -66 99c-42 0 -66 -25 -66 -99v-240c0 -69 21 -99 66 -99c36 0 66 25 66 86zM209 638c28 0 51 -5 59 -5c13 0 25 6 25 22v25c0 13 -9 22 -24 22h-59c-19 0 -30 16 -30 31v9c0 16 12 30 30 30h61c15 0 20 10 22 21l1 9c3 15 14 23 30 23h49
c16 0 27 -8 30 -23l1 -9c2 -11 7 -21 22 -21h15c18 0 30 -14 30 -30v-9c0 -15 -11 -31 -30 -31h-13c-15 0 -24 -11 -24 -24v-633c0 -36 -15 -51 -38 -51c-12 0 -23 6 -32 12l-4 3c-7 6 -13 8 -22 8c-16 0 -45 -24 -97 -24c-65 0 -162 43 -162 190v256c0 127 66 199 160 199z
" />
    <glyph glyph-name="Emacron" unicode="&#x112;" horiz-adv-x="367" 
d="M300 0h-216c-18 0 -32 14 -32 32v761c0 18 14 32 32 32h216c18 0 32 -14 32 -32v-48c0 -18 -14 -30 -32 -32h-110c-14 0 -23 -10 -23 -23v-196c0 -13 9 -23 23 -23h100c18 0 32 -14 32 -32v-48c0 -18 -14 -32 -32 -32h-100c-14 0 -23 -10 -23 -23v-201
c0 -13 9 -23 23 -23h110c18 0 32 -14 32 -32v-48c0 -18 -14 -32 -32 -32zM316 940v-12c0 -23 -17 -28 -40 -28h-178c-20 0 -31 11 -31 28v12c0 19 12 28 31 28h178c23 0 40 -4 40 -28z" />
    <glyph glyph-name="emacron" unicode="&#x113;" horiz-adv-x="457" 
d="M164 450v-35c0 -18 12 -22 23 -22h79c15 0 28 3 28 23v30c0 59 -22 90 -64 90c-37 0 -66 -24 -66 -86zM368 295h-181c-14 0 -23 -9 -23 -22v-89c0 -59 27 -86 66 -86c38 0 64 26 64 86v2c0 18 14 32 32 32h48c18 0 32 -14 32 -32v-7c0 -122 -78 -186 -176 -186
c-96 0 -178 60 -178 189v271c0 125 81 189 178 189s176 -65 176 -187v-122c0 -19 -16 -38 -38 -38zM361 763v-18c0 -22 -16 -28 -42 -28h-180c-25 0 -42 5 -42 28v18c0 24 17 28 42 28h180c25 0 42 -5 42 -28z" />
    <glyph glyph-name="Ebreve" unicode="&#x114;" horiz-adv-x="367" 
d="M300 0h-216c-18 0 -32 14 -32 32v761c0 18 14 32 32 32h216c18 0 32 -14 32 -32v-48c0 -18 -14 -30 -32 -32h-110c-14 0 -23 -10 -23 -23v-196c0 -13 9 -23 23 -23h100c18 0 32 -14 32 -32v-48c0 -18 -14 -32 -32 -32h-100c-14 0 -23 -10 -23 -23v-201
c0 -13 9 -23 23 -23h110c18 0 32 -14 32 -32v-48c0 -18 -14 -32 -32 -32zM188 869c-55 0 -105 32 -105 95c0 28 4 53 32 53c8 0 14 -2 19 -6c7 -5 11 -13 11 -24v-5c0 -24 20 -40 43 -40c22 0 43 16 43 40v5c0 9 3 17 8 22s12 8 22 8c28 0 32 -25 32 -53
c0 -63 -48 -95 -105 -95z" />
    <glyph glyph-name="ebreve" unicode="&#x115;" horiz-adv-x="457" 
d="M164 450v-35c0 -18 12 -22 23 -22h79c15 0 28 3 28 23v30c0 59 -22 90 -64 90c-37 0 -66 -24 -66 -86zM368 295h-181c-14 0 -23 -9 -23 -22v-89c0 -59 27 -86 66 -86c38 0 64 26 64 86v2c0 18 14 32 32 32h48c18 0 32 -14 32 -32v-7c0 -122 -78 -186 -176 -186
c-96 0 -178 60 -178 189v271c0 125 81 189 178 189s176 -65 176 -187v-122c0 -19 -16 -38 -38 -38zM230 681c-56 0 -105 34 -105 96c0 29 4 53 32 53c7 0 14 -2 19 -6c7 -4 11 -13 11 -24v-4c0 -25 20 -40 42 -40c23 0 43 15 44 40v4c0 10 2 18 8 23c5 5 12 7 22 7
c28 0 31 -24 31 -53c0 -62 -47 -96 -104 -96z" />
    <glyph glyph-name="Edotaccent" unicode="&#x116;" horiz-adv-x="367" 
d="M300 0h-216c-18 0 -32 14 -32 32v761c0 18 14 32 32 32h216c18 0 32 -14 32 -32v-48c0 -18 -14 -30 -32 -32h-110c-14 0 -23 -10 -23 -23v-196c0 -13 9 -23 23 -23h100c18 0 32 -14 32 -32v-48c0 -18 -14 -32 -32 -32h-100c-14 0 -23 -10 -23 -23v-201
c0 -13 9 -23 23 -23h110c18 0 32 -14 32 -32v-48c0 -18 -14 -32 -32 -32zM135 907v49c0 18 14 32 32 32h51c18 0 32 -14 32 -32v-49c0 -18 -14 -32 -32 -32h-51c-18 0 -32 14 -32 32z" />
    <glyph glyph-name="edotaccent" unicode="&#x117;" horiz-adv-x="457" 
d="M164 450v-35c0 -18 12 -22 23 -22h79c15 0 28 3 28 23v30c0 59 -22 90 -64 90c-37 0 -66 -24 -66 -86zM368 295h-181c-14 0 -23 -9 -23 -22v-89c0 -59 27 -86 66 -86c38 0 64 26 64 86v2c0 18 14 32 32 32h48c18 0 32 -14 32 -32v-7c0 -122 -78 -186 -176 -186
c-96 0 -178 60 -178 189v271c0 125 81 189 178 189s176 -65 176 -187v-122c0 -19 -16 -38 -38 -38zM172 744v49c0 18 14 32 32 32h51c18 0 32 -14 32 -32v-49c0 -18 -14 -32 -32 -32h-51c-18 0 -32 14 -32 32z" />
    <glyph glyph-name="Eogonek" unicode="&#x118;" horiz-adv-x="367" 
d="M203 0h-119c-18 0 -32 14 -32 32v761c0 18 14 32 32 32h216c18 0 32 -14 32 -32v-48c0 -18 -14 -30 -32 -32h-110c-14 0 -23 -10 -23 -23v-196c0 -13 9 -23 23 -23h100c18 0 32 -14 32 -32v-48c0 -18 -14 -32 -32 -32h-100c-14 0 -23 -10 -23 -23v-202
c0 -13 9 -23 23 -23h110c18 0 32 -14 32 -32v-53c0 -19 -6 -27 -24 -44l-35 -32c-16 -15 -22 -21 -22 -32c0 -14 13 -22 25 -22c14 0 21 14 38 14c11 0 29 -6 29 -28c0 -27 -45 -53 -93 -53c-44 0 -81 22 -81 61c0 26 16 45 29 56c2 1 8 7 9 8c10 9 16 15 16 25
c0 12 -9 21 -20 21z" />
    <glyph glyph-name="eogonek" unicode="&#x119;" horiz-adv-x="457" 
d="M406 455v-122c0 -22 -14 -38 -45 -38h-174c-14 0 -23 -9 -23 -22v-89c0 -57 26 -86 66 -86c38 0 64 26 64 86v2c0 18 14 32 32 32h48c18 0 32 -14 32 -32v-12c0 -53 -15 -87 -49 -140l-60 -93c-7 -11 -9 -14 -9 -23c0 -13 10 -22 22 -22c14 0 21 16 38 16
c11 0 27 -8 27 -26c0 -31 -44 -56 -92 -56c-52 0 -85 25 -85 58c0 49 47 57 47 83c0 14 -9 22 -27 23c-93 6 -166 63 -166 188v271c0 125 81 189 178 189s176 -65 176 -187zM164 450v-35c0 -18 12 -22 23 -22h79c15 0 28 3 28 23v30c0 59 -22 90 -64 90
c-37 0 -66 -24 -66 -86z" />
    <glyph glyph-name="Ecaron" unicode="&#x11a;" horiz-adv-x="367" 
d="M300 0h-216c-18 0 -32 14 -32 32v761c0 18 14 32 32 32h216c18 0 32 -14 32 -32v-48c0 -18 -14 -30 -32 -32h-110c-14 0 -23 -10 -23 -23v-196c0 -13 9 -23 23 -23h100c18 0 32 -14 32 -32v-48c0 -18 -14 -32 -32 -32h-100c-14 0 -23 -10 -23 -23v-201
c0 -13 9 -23 23 -23h110c18 0 32 -14 32 -32v-48c0 -18 -14 -32 -32 -32zM191 969c16 0 25 10 52 29l17 12c9 6 16 8 22 8c14 0 26 -12 26 -26c0 -7 -2 -13 -11 -23l-62 -73c-12 -14 -24 -28 -44 -28s-32 14 -44 28l-62 73c-9 10 -11 16 -11 23c0 14 12 26 26 26
c6 0 13 -2 22 -8l17 -12c27 -19 36 -29 52 -29z" />
    <glyph glyph-name="ecaron" unicode="&#x11b;" horiz-adv-x="457" 
d="M164 450v-35c0 -18 12 -22 23 -22h79c15 0 28 3 28 23v30c0 59 -22 90 -64 90c-37 0 -66 -24 -66 -86zM368 295h-181c-14 0 -23 -9 -23 -22v-89c0 -59 27 -86 66 -86c38 0 64 26 64 86v2c0 18 14 32 32 32h48c18 0 32 -14 32 -32v-7c0 -122 -78 -186 -176 -186
c-96 0 -178 60 -178 189v271c0 125 81 189 178 189s176 -65 176 -187v-122c0 -19 -16 -38 -38 -38zM229 783c16 0 25 10 52 29l17 12c9 6 16 8 22 8c14 0 26 -12 26 -26c0 -7 -2 -13 -11 -23l-62 -73c-12 -14 -24 -28 -44 -28s-32 14 -44 28l-62 73c-9 10 -11 16 -11 23
c0 14 12 26 26 26c6 0 13 -2 22 -8l17 -12c27 -19 36 -29 52 -29z" />
    <glyph glyph-name="Gcircumflex" unicode="&#x11c;" horiz-adv-x="457" 
d="M216 -5c-94 0 -164 68 -164 189v456c0 104 58 192 182 192c115 0 181 -80 181 -192v-36c0 -18 -14 -32 -32 -32h-50c-18 0 -33 14 -33 32v34c0 57 -24 86 -66 86c-39 0 -67 -26 -67 -86v-452c0 -46 16 -85 67 -85c38 0 66 24 66 85v117c0 19 -11 29 -26 29
c-19 0 -32 16 -32 31v51c0 18 14 32 32 32h109c18 0 32 -14 32 -32v-370c0 -38 -20 -48 -42 -48c-10 0 -17 3 -23 6l-11 6c-8 4 -16 7 -25 7c-42 0 -65 -20 -98 -20zM234 917c-16 0 -25 -10 -52 -29l-17 -12c-9 -6 -16 -8 -22 -8c-14 0 -26 12 -26 26c0 7 2 13 11 23l62 73
c12 14 24 28 44 28s32 -14 44 -28l62 -73c9 -10 11 -16 11 -23c0 -14 -12 -26 -26 -26c-6 0 -13 2 -22 8l-17 12c-27 19 -36 29 -52 29z" />
    <glyph glyph-name="gcircumflex" unicode="&#x11d;" horiz-adv-x="457" 
d="M406 599v-586c0 -107 -72 -184 -175 -184c-93 0 -177 69 -177 162v4c1 17 15 29 32 29h46c18 0 30 -11 33 -30c0 -37 30 -59 64 -59c40 0 65 26 65 83v37c0 13 -9 20 -21 20c-17 0 -38 -5 -60 -5h-7c-111 0 -154 109 -154 185v196c0 149 98 191 162 191
c53 0 81 -26 97 -26c9 0 15 3 22 8l4 3c9 7 20 13 32 13c19 0 37 -10 37 -41zM230 172c44 0 64 29 64 99v166c0 68 -21 99 -65 99s-65 -31 -65 -99v-166c0 -70 20 -99 66 -99zM229 731c-16 0 -25 -10 -52 -29l-17 -12c-9 -6 -16 -8 -22 -8c-14 0 -26 12 -26 26
c0 7 2 13 11 23l62 73c12 14 24 28 44 28s32 -14 44 -28l62 -73c9 -10 11 -16 11 -23c0 -14 -12 -26 -26 -26c-6 0 -13 2 -22 8l-17 12c-27 19 -36 29 -52 29z" />
    <glyph glyph-name="Gbreve" unicode="&#x11e;" horiz-adv-x="457" 
d="M216 -5c-94 0 -164 68 -164 189v456c0 104 58 192 182 192c115 0 181 -80 181 -192v-36c0 -18 -14 -32 -32 -32h-50c-18 0 -33 14 -33 32v34c0 57 -24 86 -66 86c-39 0 -67 -26 -67 -86v-452c0 -46 16 -85 67 -85c38 0 66 24 66 85v117c0 19 -11 29 -26 29
c-19 0 -32 16 -32 31v51c0 18 14 32 32 32h109c18 0 32 -14 32 -32v-370c0 -38 -20 -48 -42 -48c-10 0 -17 3 -23 6l-11 6c-8 4 -16 7 -25 7c-42 0 -65 -20 -98 -20zM234 869c-55 0 -105 32 -105 95c0 28 4 53 32 53c8 0 14 -2 19 -6c7 -5 11 -13 11 -24v-5
c0 -24 20 -40 43 -40c22 0 43 16 43 40v5c0 9 3 17 8 22s12 8 22 8c28 0 32 -25 32 -53c0 -63 -48 -95 -105 -95z" />
    <glyph glyph-name="gbreve" unicode="&#x11f;" horiz-adv-x="457" 
d="M406 599v-586c0 -107 -72 -184 -175 -184c-93 0 -177 69 -177 162v4c1 17 15 29 32 29h46c18 0 30 -11 33 -30c0 -37 30 -59 64 -59c40 0 65 26 65 83v37c0 13 -9 20 -21 20c-17 0 -38 -5 -60 -5h-7c-111 0 -154 109 -154 185v196c0 149 98 191 162 191
c53 0 81 -26 97 -26c9 0 15 3 22 8l4 3c9 7 20 13 32 13c19 0 37 -10 37 -41zM230 172c44 0 64 29 64 99v166c0 68 -21 99 -65 99s-65 -31 -65 -99v-166c0 -70 20 -99 66 -99zM230 681c-56 0 -105 34 -105 96c0 29 4 53 32 53c7 0 14 -2 19 -6c7 -4 11 -13 11 -24v-4
c0 -25 20 -40 42 -40c23 0 43 15 44 40v4c0 10 2 18 8 23c5 5 12 7 22 7c28 0 31 -24 31 -53c0 -62 -47 -96 -104 -96z" />
    <glyph glyph-name="Gdotaccent" unicode="&#x120;" 
d="M216 -5c-94 0 -164 68 -164 189v456c0 104 58 192 182 192c115 0 181 -80 181 -192v-36c0 -18 -14 -32 -32 -32h-50c-18 0 -33 14 -33 32v34c0 57 -24 86 -66 86c-39 0 -67 -26 -67 -86v-452c0 -46 16 -85 67 -85c38 0 66 24 66 85v117c0 19 -11 29 -26 29
c-19 0 -32 16 -32 31v51c0 18 14 32 32 32h109c18 0 32 -14 32 -32v-370c0 -38 -20 -48 -42 -48c-10 0 -17 3 -23 6l-11 6c-8 4 -16 7 -25 7c-42 0 -65 -20 -98 -20zM177 907v49c0 18 14 32 32 32h51c18 0 32 -14 32 -32v-49c0 -18 -14 -32 -32 -32h-51c-18 0 -32 14 -32 32
z" />
    <glyph glyph-name="gdotaccent" unicode="&#x121;" horiz-adv-x="457" 
d="M406 599v-586c0 -107 -72 -184 -175 -184c-93 0 -177 69 -177 162v4c1 17 15 29 32 29h46c18 0 30 -11 33 -30c0 -37 30 -59 64 -59c40 0 65 26 65 83v37c0 13 -9 20 -21 20c-17 0 -38 -5 -60 -5h-7c-111 0 -154 109 -154 185v196c0 149 98 191 162 191
c53 0 81 -26 97 -26c9 0 15 3 22 8l4 3c9 7 20 13 32 13c19 0 37 -10 37 -41zM230 172c44 0 64 29 64 99v166c0 68 -21 99 -65 99s-65 -31 -65 -99v-166c0 -70 20 -99 66 -99zM172 744v49c0 18 14 32 32 32h51c18 0 32 -14 32 -32v-49c0 -18 -14 -32 -32 -32h-51
c-18 0 -32 14 -32 32z" />
    <glyph glyph-name="uni0122" unicode="&#x122;" 
d="M216 -5c-94 0 -164 68 -164 189v456c0 104 58 192 182 192c115 0 181 -80 181 -192v-36c0 -18 -14 -32 -32 -32h-50c-18 0 -33 14 -33 32v34c0 57 -24 86 -66 86c-39 0 -67 -26 -67 -86v-452c0 -46 16 -85 67 -85c38 0 66 24 66 85v117c0 19 -11 29 -26 29
c-19 0 -32 16 -32 31v51c0 18 14 32 32 32h109c18 0 32 -14 32 -32v-370c0 -38 -20 -48 -42 -48c-10 0 -17 3 -23 6l-11 6c-8 4 -16 7 -25 7c-42 0 -65 -20 -98 -20zM233 -30h20c18 0 30 -11 30 -27c0 -42 -30 -88 -70 -107c-10 -4 -20 -7 -30 -7c-13 0 -24 8 -24 24
c0 9 5 16 12 23c18 19 24 35 29 63l1 6c3 15 15 25 32 25z" />
    <glyph glyph-name="uni0123" unicode="&#x123;" horiz-adv-x="457" 
d="M406 599v-586c0 -107 -72 -184 -175 -184c-93 0 -177 69 -177 162v4c1 17 15 29 32 29h46c18 0 30 -11 33 -30c0 -37 30 -59 64 -59c40 0 65 26 65 83v37c0 13 -9 20 -21 20c-17 0 -38 -5 -60 -5h-7c-111 0 -154 109 -154 185v196c0 149 98 191 162 191
c53 0 81 -26 97 -26c9 0 15 3 22 8l4 3c9 7 20 13 32 13c19 0 37 -10 37 -41zM230 172c44 0 64 29 64 99v166c0 68 -21 99 -65 99s-65 -31 -65 -99v-166c0 -70 20 -99 66 -99zM228 685h-28c-15 0 -24 8 -24 22v9c0 54 55 116 97 116c12 0 24 -8 24 -24c0 -9 -6 -16 -12 -22
c-18 -20 -30 -37 -30 -69c0 -20 -7 -32 -27 -32z" />
    <glyph glyph-name="commaaccent" unicode="&#xf6c3;" horiz-adv-x="458" 
d="M226 -30h20c18 0 30 -11 30 -27c0 -42 -30 -88 -70 -107c-10 -4 -20 -7 -30 -7c-13 0 -24 8 -24 24c0 9 5 16 12 23c18 19 24 35 29 63l1 6c3 15 15 25 32 25z" />
    <glyph glyph-name="Hcircumflex" unicode="&#x124;" 
d="M52 32v761c0 18 14 32 32 32h51c18 0 32 -14 32 -32v-302c0 -12 7 -22 23 -22h87c15 0 23 11 23 22v302c0 18 15 32 33 32h50c18 0 32 -14 32 -32v-761c0 -18 -14 -32 -32 -32h-50c-18 0 -33 14 -33 32v306c0 11 -8 22 -23 22h-87c-15 0 -23 -11 -23 -22v-306
c0 -18 -14 -32 -32 -32h-51c-18 0 -32 14 -32 32zM234 917c-16 0 -25 -10 -52 -29l-17 -12c-9 -6 -16 -8 -22 -8c-14 0 -26 12 -26 26c0 7 2 13 11 23l62 73c12 14 24 28 44 28s32 -14 44 -28l62 -73c9 -10 11 -16 11 -23c0 -14 -12 -26 -26 -26c-6 0 -13 2 -22 8l-17 12
c-27 19 -36 29 -52 29z" />
    <glyph glyph-name="hcircumflex" unicode="&#x125;" horiz-adv-x="458" 
d="M52 32v761c0 18 14 32 32 32h48c18 0 32 -14 32 -32v-111c0 -12 -1 -19 -1 -28c0 -18 9 -25 21 -25c14 0 24 9 61 9c69 0 161 -51 161 -183v-423c0 -18 -14 -32 -32 -32h-48c-18 0 -32 14 -32 32v418c0 58 -27 86 -65 86c-37 0 -65 -24 -65 -86v-418
c0 -18 -14 -32 -32 -32h-48c-18 0 -32 14 -32 32zM229 917c-16 0 -25 -10 -52 -29l-17 -12c-9 -6 -16 -8 -22 -8c-14 0 -26 12 -26 26c0 7 2 13 11 23l62 73c12 14 24 28 44 28s32 -14 44 -28l62 -73c9 -10 11 -16 11 -23c0 -14 -12 -26 -26 -26c-6 0 -13 2 -22 8l-17 12
c-27 19 -36 29 -52 29z" />
    <glyph glyph-name="Hbar" unicode="&#x126;" horiz-adv-x="536" 
d="M334 489v73c0 18 -18 23 -34 23h-65c-22 0 -34 -9 -34 -23v-73c0 -14 10 -22 34 -22h64c17 0 35 5 35 22zM449 561v-531c0 -18 -15 -30 -33 -30h-51c-25 0 -31 18 -31 44v296c0 12 -11 22 -24 22h-85c-16 0 -24 -11 -24 -22v-296c0 -26 -5 -44 -30 -44h-54
c-18 0 -31 12 -31 30v531c0 13 -9 23 -23 23h-11c-19 0 -31 14 -31 31v44c0 17 12 30 31 30h11c14 0 23 11 23 24v68c0 27 8 44 31 44h54c23 0 30 -16 30 -44v-69c0 -11 8 -23 24 -23h85c14 0 24 10 24 23v69c0 28 8 44 31 44h51c18 0 33 -14 33 -31v-81c0 -13 9 -24 23 -24
h11c20 0 31 -15 31 -30v-44c0 -19 -12 -31 -31 -31h-10c-15 0 -24 -10 -24 -23z" />
    <glyph glyph-name="hbar" unicode="&#x127;" horiz-adv-x="458" 
d="M163 792c0 -13 9 -21 23 -21h60c18 0 30 -13 30 -30v-10c0 -18 -12 -30 -30 -30h-59c-16 0 -25 -7 -25 -20v-25c0 -16 10 -26 24 -26c17 0 24 8 59 8h11c67 -5 150 -54 150 -183v-423c0 -18 -14 -32 -32 -32h-48c-26 0 -32 20 -32 46v390c0 52 -10 100 -64 100
c-33 0 -62 -20 -66 -71v-419c0 -24 -7 -46 -32 -46h-48c-18 0 -32 14 -32 32v646c0 14 -9 23 -25 23h-7c-22 0 -34 10 -34 30v10c0 21 12 30 34 30h7c15 0 25 8 25 21c0 19 13 33 32 33h47c14 0 32 -11 32 -33z" />
    <glyph glyph-name="Itilde" unicode="&#x128;" horiz-adv-x="228" 
d="M170 792v-760c0 -18 -14 -32 -32 -32h-51c-18 0 -32 14 -32 32v761c0 18 14 32 32 32h51c18 0 32 -15 32 -33zM91 899l-8 7c-8 6 -12 10 -21 10s-17 -8 -20 -15l-3 -6c-5 -11 -15 -18 -28 -18c-14 0 -28 10 -28 27c0 45 45 86 86 86c23 0 44 -5 63 -21
c12 -10 21 -17 31 -17c11 0 16 7 20 15l3 6c5 10 15 18 28 18c14 0 28 -10 28 -27c0 -46 -45 -87 -84 -87c-25 0 -46 6 -67 22z" />
    <glyph glyph-name="itilde" unicode="&#x129;" horiz-adv-x="223" 
d="M90 731l-8 7c-8 6 -12 10 -21 10s-18 -8 -20 -15l-3 -6c-5 -11 -15 -18 -28 -18c-14 0 -28 10 -28 27c0 45 45 86 86 86c23 0 45 -5 64 -21c12 -10 20 -17 30 -17c11 0 16 7 20 15l3 6c5 10 15 18 28 18c14 0 28 -10 28 -27c0 -46 -45 -87 -84 -87c-25 0 -46 6 -67 22z
M55 32v571c0 18 14 32 32 32h48c18 0 32 -14 32 -32v-571c0 -18 -14 -32 -32 -32h-48c-18 0 -32 14 -32 32z" />
    <glyph glyph-name="Imacron" unicode="&#x12a;" horiz-adv-x="228" 
d="M171 792v-760c0 -18 -14 -32 -32 -32h-51c-18 0 -32 14 -32 32v761c0 18 14 32 32 32h51c18 0 32 -15 32 -33zM238 940v-12c0 -23 -17 -28 -40 -28h-178c-20 0 -31 11 -31 28v12c0 19 12 28 31 28h178c23 0 40 -4 40 -28z" />
    <glyph glyph-name="imacron" unicode="&#x12b;" horiz-adv-x="223" 
d="M244 763v-18c0 -22 -16 -28 -42 -28h-180c-25 0 -42 5 -42 28v18c0 24 17 28 42 28h180c25 0 42 -5 42 -28zM55 32v571c0 18 14 32 32 32h48c18 0 32 -14 32 -32v-571c0 -18 -14 -32 -32 -32h-48c-18 0 -32 14 -32 32z" />
    <glyph glyph-name="Iogonek" unicode="&#x12e;" horiz-adv-x="228" 
d="M52 45v748c0 18 14 32 32 32h51c18 0 32 -15 32 -33v-751c0 -35 -6 -56 -32 -84l-16 -17c-15 -16 -17 -23 -17 -34c0 -13 14 -22 24 -22c13 0 20 12 33 12c15 0 23 -12 23 -22c0 -20 -35 -45 -81 -45c-52 0 -86 24 -86 61c0 19 8 34 32 57l3 4c11 9 23 25 23 39
c0 18 -21 21 -21 55z" />
    <glyph glyph-name="iogonek" unicode="&#x12f;" horiz-adv-x="223" 
d="M55 747v46c0 18 14 32 32 32h48c18 0 32 -14 32 -32v-46c0 -18 -14 -32 -32 -32h-48c-18 0 -32 14 -32 32zM55 45v558c0 18 14 32 32 32h48c18 0 32 -14 32 -32v-562c0 -35 -6 -56 -32 -84l-16 -17c-15 -16 -17 -23 -17 -34c0 -13 14 -22 24 -22c13 0 20 12 33 12
c15 0 23 -12 23 -22c0 -20 -36 -45 -82 -45c-52 0 -82 24 -82 61c0 19 8 34 32 57l3 4c11 9 23 25 23 39c0 18 -21 21 -21 55z" />
    <glyph glyph-name="Idotaccent" unicode="&#x130;" horiz-adv-x="228" 
d="M171 792v-760c0 -18 -14 -32 -32 -32h-51c-18 0 -32 14 -32 32v761c0 18 14 32 32 32h51c18 0 32 -15 32 -33zM56 907v49c0 18 14 32 32 32h51c18 0 32 -14 32 -32v-49c0 -18 -14 -32 -32 -32h-51c-18 0 -32 14 -32 32z" />
    <glyph glyph-name="IJ" unicode="&#x132;" horiz-adv-x="557" 
d="M171 792v-760c0 -18 -14 -32 -32 -32h-51c-18 0 -32 14 -32 32v761c0 18 14 32 32 32h51c18 0 32 -15 32 -33zM323 0h-37c-18 0 -32 14 -32 32v48c0 18 14 32 32 32h37c18 0 34 6 47 19c13 14 19 35 19 66v596c0 18 14 32 33 32h50c18 0 32 -15 32 -33v-607
c0 -65 -20 -106 -53 -137c-32 -30 -76 -48 -128 -48z" />
    <glyph glyph-name="ij" unicode="&#x133;" horiz-adv-x="446" 
d="M55 32v571c0 18 14 32 32 32h48c18 0 32 -14 32 -32v-571c0 -18 -14 -32 -32 -32h-48c-18 0 -32 14 -32 32zM55 744v49c0 18 14 32 32 32h48c18 0 32 -14 32 -32v-49c0 -18 -14 -32 -32 -32h-48c-18 0 -32 14 -32 32zM278 2v601c0 18 14 32 32 32h48c18 0 32 -14 32 -32
v-595c0 -139 -83 -173 -156 -173h-12c-18 0 -32 14 -32 32v43c0 18 14 32 32 32h7c36 0 49 25 49 60zM278 744v49c0 18 14 32 32 32h48c18 0 32 -14 32 -32v-49c0 -18 -14 -32 -32 -32h-48c-18 0 -32 14 -32 32z" />
    <glyph glyph-name="Jcircumflex" unicode="&#x134;" horiz-adv-x="325" 
d="M91 0h-37c-18 0 -32 14 -32 32v48c0 18 14 32 32 32h37c18 0 34 6 47 19c13 14 19 35 19 66v596c0 18 14 32 33 32h50c18 0 32 -15 32 -33v-607c0 -65 -20 -106 -53 -137c-32 -30 -76 -48 -128 -48zM217 917c-16 0 -25 -10 -52 -29l-17 -12c-9 -6 -16 -8 -22 -8
c-14 0 -26 12 -26 26c0 7 2 13 11 23l62 73c12 14 24 28 44 28s32 -14 44 -28l62 -73c9 -10 11 -16 11 -23c0 -14 -12 -26 -26 -26c-6 0 -13 2 -22 8l-17 12c-27 19 -36 29 -52 29z" />
    <glyph glyph-name="jcircumflex" unicode="&#x135;" horiz-adv-x="223" 
d="M55 2v601c0 18 14 32 32 32h48c18 0 32 -14 32 -32v-595c0 -139 -83 -173 -156 -173h-12c-18 0 -32 14 -32 32v43c0 18 14 32 32 32h7c36 0 49 25 49 60zM111 731c-16 0 -25 -10 -52 -29l-17 -12c-9 -6 -16 -8 -22 -8c-14 0 -26 12 -26 26c0 7 2 13 11 23l62 73
c12 14 24 28 44 28s32 -14 44 -28l62 -73c9 -10 11 -16 11 -23c0 -14 -12 -26 -26 -26c-6 0 -13 2 -22 8l-17 12c-27 19 -36 29 -52 29z" />
    <glyph glyph-name="uni0136" unicode="&#x136;" horiz-adv-x="470" 
d="M415 793v-230c0 -49 -8 -93 -41 -125l-8 -8c-6 -5 -8 -10 -8 -15s2 -10 8 -16l8 -8c34 -31 41 -75 41 -124v-235c0 -18 -13 -32 -31 -32h-51c-18 0 -33 14 -33 32v243c0 59 -30 86 -67 86h-44c-13 0 -22 -10 -22 -23v-306c0 -18 -14 -32 -32 -32h-51c-18 0 -32 14 -32 32
v761c0 18 14 32 32 32h51c18 0 32 -14 32 -32v-302c0 -14 9 -22 23 -22h43c36 0 67 23 67 85v239c0 18 15 32 33 32h51c18 0 31 -14 31 -32zM225 -30h20c18 0 30 -11 30 -27c0 -42 -30 -88 -70 -107c-10 -4 -20 -7 -30 -7c-13 0 -24 8 -24 24c0 9 5 16 12 23
c18 19 24 35 29 63l1 6c3 15 15 25 32 25z" />
    <glyph glyph-name="uni0137" unicode="&#x137;" horiz-adv-x="457" 
d="M406 603v-120c0 -51 -8 -94 -41 -126l-9 -8c-5 -6 -7 -11 -7 -16s2 -10 7 -15l9 -8c32 -32 41 -76 41 -126v-152c0 -18 -14 -32 -32 -32h-48c-18 0 -32 14 -32 32v150c0 75 -25 100 -65 100h-43c-13 0 -22 -10 -22 -23v-227c0 -18 -14 -32 -32 -32h-48
c-18 0 -32 14 -32 32v761c0 18 14 32 32 32h48c18 0 32 -14 32 -32v-386c0 -13 9 -22 23 -22h42c41 0 65 28 65 100v118c0 18 14 32 32 32h49c18 0 31 -14 31 -32zM221 -30h20c18 0 30 -11 30 -27c0 -42 -30 -88 -70 -107c-10 -4 -20 -7 -30 -7c-13 0 -24 8 -24 24
c0 9 5 16 12 23c18 19 24 35 29 63l1 6c3 15 15 25 32 25z" />
    <glyph glyph-name="kgreenlandic" unicode="&#x138;" horiz-adv-x="465" 
d="M229 281h-43c-13 0 -22 -10 -22 -23v-228c0 -18 -12 -30 -31 -30h-50c-19 0 -31 12 -31 30v574c0 19 12 31 31 31h51c18 0 30 -12 30 -31v-196c0 -13 9 -22 23 -22h42c31 0 66 20 66 69v149c0 19 12 31 30 31h52c18 0 29 -12 29 -31v-86c0 -76 -8 -128 -46 -161l-9 -8
c-5 -5 -7 -10 -7 -15s2 -10 7 -15l9 -7c38 -34 47 -86 47 -162v-120c0 -18 -12 -30 -30 -30h-52c-18 0 -30 12 -30 30v182c0 11 -4 20 -9 26c-7 31 -35 43 -57 43z" />
    <glyph glyph-name="Lacute" unicode="&#x139;" horiz-adv-x="353" 
d="M167 793v-658c0 -13 9 -23 23 -23h113c18 0 32 -14 32 -32v-48c0 -18 -14 -32 -32 -32h-219c-18 0 -32 14 -32 32v761c0 18 14 32 32 32h51c18 0 32 -14 32 -32zM271 963l-118 -86c-10 -7 -20 -11 -27 -11c-16 0 -27 11 -27 25c0 6 2 11 7 18l48 77c12 20 23 25 44 25h60
c17 0 27 -12 27 -24c0 -9 -3 -16 -14 -24z" />
    <glyph glyph-name="lacute" unicode="&#x13a;" horiz-adv-x="222" 
d="M163 793v-761c0 -18 -14 -32 -32 -32h-48c-18 0 -32 14 -32 32v761c0 18 14 32 32 32h48c18 0 32 -14 32 -32zM206 963l-118 -86c-10 -7 -20 -11 -27 -11c-16 0 -27 11 -27 25c0 6 2 11 7 18l48 77c12 20 23 25 44 25h60c17 0 27 -12 27 -24c0 -9 -3 -16 -14 -24z" />
    <glyph glyph-name="uni013B" unicode="&#x13b;" horiz-adv-x="353" 
d="M167 793v-658c0 -13 9 -23 23 -23h113c18 0 32 -14 32 -32v-48c0 -18 -14 -32 -32 -32h-219c-18 0 -32 14 -32 32v761c0 18 14 32 32 32h51c18 0 32 -14 32 -32zM197 -30h20c18 0 30 -11 30 -27c0 -42 -30 -88 -70 -107c-10 -4 -20 -7 -30 -7c-13 0 -24 8 -24 24
c0 9 5 16 12 23c18 19 24 35 29 63l1 6c3 15 15 25 32 25z" />
    <glyph glyph-name="uni013C" unicode="&#x13c;" horiz-adv-x="222" 
d="M167 793v-761c0 -18 -14 -32 -32 -32h-48c-18 0 -32 14 -32 32v761c0 18 14 32 32 32h48c18 0 32 -14 32 -32zM99 -30h20c18 0 30 -11 30 -27c0 -42 -30 -88 -70 -107c-10 -4 -20 -7 -30 -7c-13 0 -24 8 -24 24c0 9 5 16 12 23c18 19 24 35 29 63l1 6c3 15 15 25 32 25z
" />
    <glyph glyph-name="Lcaron" unicode="&#x13d;" horiz-adv-x="353" 
d="M167 793v-658c0 -13 9 -23 23 -23h113c18 0 32 -14 32 -32v-48c0 -18 -14 -32 -32 -32h-219c-18 0 -32 14 -32 32v761c0 18 14 32 32 32h51c18 0 32 -14 32 -32zM242 793c0 -38 -8 -71 -23 -106c-4 -8 -7 -17 -7 -24c0 -18 13 -28 28 -28c34 0 94 94 94 157
c0 21 -12 33 -30 33h-32c-19 0 -30 -13 -30 -32z" />
    <glyph glyph-name="lcaron" unicode="&#x13e;" horiz-adv-x="362" 
d="M164 793v-761c0 -18 -14 -32 -32 -32h-48c-18 0 -32 14 -32 32v761c0 18 14 32 32 32h48c18 0 32 -14 32 -32zM250 793c0 -38 -8 -71 -23 -106c-4 -8 -7 -17 -7 -24c0 -18 13 -28 28 -28c34 0 94 94 94 157c0 21 -12 33 -30 33h-32c-19 0 -30 -13 -30 -32z" />
    <glyph glyph-name="Ldot" unicode="&#x13f;" horiz-adv-x="388" 
d="M167 793v-658c0 -13 9 -23 23 -23h113c18 0 32 -14 32 -32v-48c0 -18 -14 -32 -32 -32h-219c-18 0 -32 14 -32 32v761c0 18 14 32 32 32h51c18 0 32 -14 32 -32zM245 387v55c0 18 14 32 32 32h53c18 0 32 -14 32 -32v-55c0 -18 -14 -32 -32 -32h-53c-18 0 -32 14 -32 32z
" />
    <glyph glyph-name="ldot" unicode="&#x140;" horiz-adv-x="380" 
d="M164 793v-761c0 -18 -14 -32 -32 -32h-48c-18 0 -32 14 -32 32v761c0 18 14 32 32 32h48c18 0 32 -14 32 -32zM241 393v55c0 18 14 32 32 32h53c18 0 32 -14 32 -32v-55c0 -18 -14 -32 -32 -32h-53c-18 0 -32 14 -32 32z" />
    <glyph glyph-name="lslash" unicode="&#x142;" horiz-adv-x="311" 
d="M100 32v298c0 13 -6 20 -16 20c-4 0 -9 -1 -15 -4l-5 -3c-5 -3 -10 -4 -14 -4c-15 0 -26 12 -26 31v16c0 16 6 25 22 34l36 19c14 7 18 20 18 33v307c0 24 6 46 32 46h47c26 0 32 -22 32 -46v-238c0 -13 6 -20 16 -20c4 0 9 1 15 4l5 3c5 3 10 4 14 4c14 0 26 -12 26 -31
v-17c0 -16 -6 -26 -22 -34l-36 -19c-14 -8 -18 -21 -18 -33v-353c0 -25 -7 -45 -32 -45h-47c-18 0 -32 14 -32 32z" />
    <glyph glyph-name="Nacute" unicode="&#x143;" 
d="M300 32v607c0 30 -5 51 -18 65c-13 13 -30 20 -48 20c-19 0 -36 -7 -48 -20c-14 -14 -19 -35 -19 -65v-607c0 -18 -14 -32 -32 -32h-51c-18 0 -32 14 -32 32v748c0 19 4 29 12 36c7 8 18 13 30 13c13 0 22 -5 32 -11l5 -3c8 -4 16 -7 25 -7c11 0 26 8 44 14
c16 5 34 9 54 9c39 0 83 -17 108 -42c38 -34 53 -83 53 -142v-615c0 -18 -14 -32 -32 -32h-50c-18 0 -33 14 -33 32zM316 963l-118 -86c-10 -7 -20 -11 -27 -11c-16 0 -27 11 -27 25c0 6 2 11 7 18l48 77c12 20 23 25 44 25h60c17 0 27 -12 27 -24c0 -9 -3 -16 -14 -24z" />
    <glyph glyph-name="nacute" unicode="&#x144;" horiz-adv-x="458" 
d="M294 32v418c0 31 -6 51 -19 65c-12 14 -28 21 -46 21c-19 0 -34 -7 -47 -21s-18 -34 -18 -65v-418c0 -18 -14 -32 -32 -32h-48c-18 0 -32 14 -32 32v567c0 13 5 23 12 30c7 6 16 10 27 10c12 0 22 -5 31 -12l4 -3c7 -6 14 -9 23 -9s21 9 40 16c17 6 37 10 58 10
c38 0 76 -14 107 -43c37 -34 52 -82 52 -141v-425c0 -18 -14 -32 -32 -32h-48c-18 0 -32 14 -32 32zM308 777l-118 -86c-10 -7 -20 -11 -27 -11c-16 0 -27 11 -27 25c0 6 2 11 7 18l48 77c12 20 23 25 44 25h60c17 0 27 -12 27 -24c0 -9 -3 -16 -14 -24z" />
    <glyph glyph-name="uni0145" unicode="&#x145;" 
d="M300 32v607c0 30 -5 51 -18 65c-13 13 -30 20 -48 20c-19 0 -36 -7 -48 -20c-14 -14 -19 -35 -19 -65v-607c0 -18 -14 -32 -32 -32h-51c-18 0 -32 14 -32 32v748c0 19 4 29 12 36c7 8 18 13 30 13c13 0 22 -5 32 -11l5 -3c8 -4 16 -7 25 -7c11 0 26 8 44 14
c16 5 34 9 54 9c39 0 83 -17 108 -42c38 -34 53 -83 53 -142v-615c0 -18 -14 -32 -32 -32h-50c-18 0 -33 14 -33 32zM224 -30h20c18 0 30 -11 30 -27c0 -42 -30 -88 -70 -107c-10 -4 -20 -7 -30 -7c-13 0 -24 8 -24 24c0 9 5 16 12 23c18 19 24 35 29 63l1 6
c3 15 15 25 32 25z" />
    <glyph glyph-name="uni0146" unicode="&#x146;" horiz-adv-x="458" 
d="M294 32v418c0 31 -6 51 -19 65c-12 14 -28 21 -46 21c-19 0 -34 -7 -47 -21s-18 -34 -18 -65v-418c0 -18 -14 -32 -32 -32h-48c-18 0 -32 14 -32 32v567c0 13 5 23 12 30c7 6 16 10 27 10c12 0 22 -5 31 -12l4 -3c7 -6 14 -9 23 -9s21 9 40 16c17 6 37 10 58 10
c38 0 76 -14 107 -43c37 -34 52 -82 52 -141v-425c0 -18 -14 -32 -32 -32h-48c-18 0 -32 14 -32 32zM221 -30h20c18 0 30 -11 30 -27c0 -42 -30 -88 -70 -107c-10 -4 -20 -7 -30 -7c-13 0 -24 8 -24 24c0 9 5 16 12 23c18 19 24 35 29 63l1 6c3 15 15 25 32 25z" />
    <glyph glyph-name="Ncaron" unicode="&#x147;" 
d="M300 639v-607c0 -18 15 -32 33 -32h50c18 0 32 14 32 32v615c0 59 -15 108 -53 142c-25 25 -69 42 -108 42c-20 0 -38 -4 -54 -9c-18 -6 -33 -14 -44 -14c-9 0 -17 3 -25 7l-5 3c-10 6 -19 11 -32 11c-12 0 -23 -5 -30 -13c-8 -7 -12 -17 -12 -36v-748
c0 -18 14 -32 32 -32h51c18 0 32 14 32 32v607c0 30 5 51 19 65c12 13 29 20 48 20c18 0 35 -7 48 -20c13 -14 18 -35 18 -65zM234 969c16 0 25 10 52 29l17 12c9 6 16 8 22 8c14 0 26 -12 26 -26c0 -7 -2 -13 -11 -23l-62 -73c-12 -14 -24 -28 -44 -28s-32 14 -44 28
l-62 73c-9 10 -11 16 -11 23c0 14 12 26 26 26c6 0 13 -2 22 -8l17 -12c27 -19 36 -29 52 -29z" />
    <glyph glyph-name="ncaron" unicode="&#x148;" horiz-adv-x="458" 
d="M294 32v418c0 31 -6 51 -19 65c-12 14 -28 21 -46 21c-19 0 -34 -7 -47 -21s-18 -34 -18 -65v-418c0 -18 -14 -32 -32 -32h-48c-18 0 -32 14 -32 32v567c0 13 5 23 12 30c7 6 16 10 27 10c12 0 22 -5 31 -12l4 -3c7 -6 14 -9 23 -9s21 9 40 16c17 6 37 10 58 10
c38 0 76 -14 107 -43c37 -34 52 -82 52 -141v-425c0 -18 -14 -32 -32 -32h-48c-18 0 -32 14 -32 32zM229 783c16 0 25 10 52 29l17 12c9 6 16 8 22 8c14 0 26 -12 26 -26c0 -7 -2 -13 -11 -23l-62 -73c-12 -14 -24 -28 -44 -28s-32 14 -44 28l-62 73c-9 10 -11 16 -11 23
c0 14 12 26 26 26c6 0 13 -2 22 -8l17 -12c27 -19 36 -29 52 -29z" />
    <glyph glyph-name="napostrophe" unicode="&#x149;" horiz-adv-x="458" 
d="M294 32v418c0 31 -6 51 -19 65c-12 14 -28 21 -46 21c-19 0 -34 -7 -47 -21s-18 -34 -18 -65v-418c0 -18 -14 -32 -32 -32h-48c-18 0 -32 14 -32 32v567c0 13 5 23 12 30c7 6 16 10 27 10c12 0 22 -5 31 -12l4 -3c7 -6 14 -9 23 -9s21 9 40 16c17 6 37 10 58 10
c38 0 76 -14 107 -43c37 -34 52 -82 52 -141v-425c0 -18 -14 -32 -32 -32h-48c-18 0 -32 14 -32 32zM-17 793c0 19 11 32 30 32h32c18 0 30 -12 30 -33c0 -63 -60 -157 -94 -157c-15 0 -28 10 -28 28c0 7 3 16 7 24c15 35 23 68 23 106z" />
    <glyph glyph-name="Omacron" unicode="&#x14c;" 
d="M167 638v-452c0 -59 28 -85 67 -85c36 0 66 22 66 85v452c0 63 -30 86 -66 86c-40 0 -67 -26 -67 -86zM415 640v-456c0 -126 -77 -191 -181 -191c-99 0 -182 61 -182 191v456c0 129 81 192 182 192c99 0 181 -63 181 -192zM359 940v-12c0 -23 -17 -28 -40 -28h-178
c-20 0 -31 11 -31 28v12c0 19 12 28 31 28h178c23 0 40 -4 40 -28z" />
    <glyph glyph-name="omacron" unicode="&#x14d;" horiz-adv-x="458" 
d="M230 99c44 0 64 29 64 99v239c0 68 -21 99 -65 99s-65 -31 -65 -99v-239c0 -70 20 -99 66 -99zM228 -7c-96 0 -176 63 -176 189v271c0 127 80 189 177 189s177 -62 177 -189v-271c0 -126 -80 -189 -178 -189zM361 763v-18c0 -22 -16 -28 -42 -28h-180c-25 0 -42 5 -42 28
v18c0 24 17 28 42 28h180c25 0 42 -5 42 -28z" />
    <glyph glyph-name="Obreve" unicode="&#x14e;" horiz-adv-x="467" 
d="M167 638v-452c0 -59 28 -85 67 -85c36 0 66 22 66 85v452c0 63 -30 86 -66 86c-40 0 -67 -26 -67 -86zM415 640v-456c0 -126 -77 -191 -181 -191c-99 0 -182 61 -182 191v456c0 129 81 192 182 192c99 0 181 -63 181 -192zM233 869c-55 0 -105 32 -105 95
c0 28 4 53 32 53c8 0 14 -2 19 -6c7 -5 11 -13 11 -24v-5c0 -24 20 -40 43 -40c22 0 43 16 43 40v5c0 9 3 17 8 22s12 8 22 8c28 0 32 -25 32 -53c0 -63 -48 -95 -105 -95z" />
    <glyph glyph-name="obreve" unicode="&#x14f;" horiz-adv-x="458" 
d="M230 99c44 0 64 29 64 99v239c0 68 -21 99 -65 99s-65 -31 -65 -99v-239c0 -70 20 -99 66 -99zM228 -7c-96 0 -176 63 -176 189v271c0 127 80 189 177 189s177 -62 177 -189v-271c0 -126 -80 -189 -178 -189zM230 681c-56 0 -105 34 -105 96c0 29 4 53 32 53
c7 0 14 -2 19 -6c7 -4 11 -13 11 -24v-4c0 -25 20 -40 42 -40c23 0 43 15 44 40v4c0 10 2 18 8 23c5 5 12 7 22 7c28 0 31 -24 31 -53c0 -62 -47 -96 -104 -96z" />
    <glyph glyph-name="Ohungarumlaut" unicode="&#x150;" 
d="M167 638v-452c0 -59 28 -85 67 -85c36 0 66 22 66 85v452c0 63 -30 86 -66 86c-40 0 -67 -26 -67 -86zM415 640v-456c0 -126 -77 -191 -181 -191c-99 0 -182 61 -182 191v456c0 129 81 192 182 192c99 0 181 -63 181 -192zM436 958l-114 -88c-10 -7 -19 -11 -26 -11
c-16 0 -28 11 -28 25c0 6 1 11 5 16l55 80c13 19 23 25 44 25h49c16 0 27 -13 27 -24c0 -9 -3 -15 -12 -23zM271 958l-114 -88c-10 -7 -19 -11 -26 -11c-16 0 -28 11 -28 25c0 6 2 10 7 18l53 78c12 19 23 25 44 25h49c16 0 27 -13 27 -24c0 -9 -3 -15 -12 -23z" />
    <glyph glyph-name="ohungarumlaut" unicode="&#x151;" horiz-adv-x="458" 
d="M230 99c44 0 64 29 64 99v239c0 68 -21 99 -65 99s-65 -31 -65 -99v-239c0 -70 20 -99 66 -99zM228 -7c-96 0 -176 63 -176 189v271c0 127 80 189 177 189s177 -62 177 -189v-271c0 -126 -80 -189 -178 -189zM244 778l-114 -88c-10 -7 -19 -11 -26 -11
c-16 0 -28 11 -28 25c0 6 1 11 7 17l53 79c12 19 23 25 44 25h49c16 0 27 -13 27 -24c0 -9 -3 -15 -12 -23zM409 778l-114 -88c-10 -7 -19 -11 -26 -11c-16 0 -28 11 -28 25c0 6 1 11 7 17l53 79c12 19 23 25 44 25h49c16 0 27 -13 27 -24c0 -9 -3 -15 -12 -23z" />
    <glyph glyph-name="Racute" unicode="&#x154;" 
d="M415 221v-189c0 -18 -14 -32 -32 -32h-50c-18 0 -33 14 -33 32v215c0 70 -34 90 -69 90h-42c-13 0 -22 -10 -22 -23v-282c0 -18 -14 -32 -32 -32h-51c-18 0 -32 14 -32 32v761c0 18 14 32 32 32h150c110 0 181 -77 181 -187v-99c0 -50 -8 -97 -42 -127l-9 -8
c-6 -5 -8 -11 -8 -16s3 -10 8 -15l9 -8c37 -35 42 -83 42 -144zM190 442h41c31 0 69 15 69 75v106c0 64 -23 94 -68 94h-41c-15 0 -24 -8 -24 -22v-231c0 -13 9 -22 23 -22zM316 963l-118 -86c-10 -7 -20 -11 -27 -11c-16 0 -27 11 -27 25c0 6 2 11 7 18l48 77
c12 20 23 25 44 25h60c17 0 27 -12 27 -24c0 -9 -3 -16 -14 -24z" />
    <glyph glyph-name="racute" unicode="&#x155;" horiz-adv-x="315" 
d="M280 605v-54c0 -20 -18 -32 -36 -32h-10c-53 0 -70 -15 -70 -79v-408c0 -15 -7 -32 -37 -32h-43c-18 0 -32 14 -32 32v565c0 24 16 39 38 39c13 0 23 -6 32 -13l4 -3c6 -5 15 -8 22 -8c13 0 20 5 47 15c17 6 31 10 53 10c18 0 32 -14 32 -32zM261 777l-118 -86
c-10 -7 -20 -11 -27 -11c-16 0 -27 11 -27 25c0 6 2 11 7 18l48 77c12 20 23 25 44 25h60c17 0 27 -12 27 -24c0 -9 -3 -16 -14 -24z" />
    <glyph glyph-name="uni0156" unicode="&#x156;" 
d="M415 221v-189c0 -18 -14 -32 -32 -32h-50c-18 0 -33 14 -33 32v215c0 70 -34 90 -69 90h-42c-13 0 -22 -10 -22 -23v-282c0 -18 -14 -32 -32 -32h-51c-18 0 -32 14 -32 32v761c0 18 14 32 32 32h150c110 0 181 -77 181 -187v-99c0 -50 -8 -97 -42 -127l-9 -8
c-6 -5 -8 -11 -8 -16s3 -10 8 -15l9 -8c37 -35 42 -83 42 -144zM190 442h41c31 0 69 15 69 75v106c0 64 -23 94 -68 94h-41c-15 0 -24 -8 -24 -22v-231c0 -13 9 -22 23 -22zM229 -30h20c18 0 30 -11 30 -27c0 -42 -30 -88 -70 -107c-10 -4 -20 -7 -30 -7c-13 0 -24 8 -24 24
c0 9 5 16 12 23c18 19 24 35 29 63l1 6c3 15 15 25 32 25z" />
    <glyph glyph-name="uni0157" unicode="&#x157;" horiz-adv-x="315" 
d="M280 605v-54c0 -20 -18 -32 -36 -32h-10c-53 0 -70 -15 -70 -79v-408c0 -15 -7 -32 -37 -32h-43c-18 0 -32 14 -32 32v565c0 24 16 39 38 39c13 0 23 -6 32 -13l4 -3c6 -5 15 -8 22 -8c13 0 20 5 47 15c17 6 31 10 53 10c18 0 32 -14 32 -32zM96 -30h20
c18 0 30 -11 30 -27c0 -42 -30 -88 -70 -107c-10 -4 -20 -7 -30 -7c-13 0 -24 8 -24 24c0 9 5 16 12 23c18 19 24 35 29 63l1 6c3 15 15 25 32 25z" />
    <glyph glyph-name="Rcaron" unicode="&#x158;" 
d="M415 221v-189c0 -18 -14 -32 -32 -32h-50c-18 0 -33 14 -33 32v215c0 70 -34 90 -69 90h-42c-13 0 -22 -10 -22 -23v-282c0 -18 -14 -32 -32 -32h-51c-18 0 -32 14 -32 32v761c0 18 14 32 32 32h150c110 0 181 -77 181 -187v-99c0 -50 -8 -97 -42 -127l-9 -8
c-6 -5 -8 -11 -8 -16s3 -10 8 -15l9 -8c37 -35 42 -83 42 -144zM190 442h41c31 0 69 15 69 75v106c0 64 -23 94 -68 94h-41c-15 0 -24 -8 -24 -22v-231c0 -13 9 -22 23 -22zM234 969c16 0 25 10 52 29l17 12c9 6 16 8 22 8c14 0 26 -12 26 -26c0 -7 -2 -13 -11 -23l-62 -73
c-12 -14 -24 -28 -44 -28s-32 14 -44 28l-62 73c-9 10 -11 16 -11 23c0 14 12 26 26 26c6 0 13 -2 22 -8l17 -12c27 -19 36 -29 52 -29z" />
    <glyph glyph-name="rcaron" unicode="&#x159;" horiz-adv-x="315" 
d="M280 605v-54c0 -20 -18 -32 -36 -32h-10c-53 0 -70 -15 -70 -79v-408c0 -15 -7 -32 -37 -32h-43c-18 0 -32 14 -32 32v565c0 24 16 39 38 39c13 0 23 -6 32 -13l4 -3c6 -5 15 -8 22 -8c13 0 20 5 47 15c17 6 31 10 53 10c18 0 32 -14 32 -32zM161 783c16 0 25 10 52 29
l17 12c9 6 16 8 22 8c14 0 26 -12 26 -26c0 -7 -2 -13 -11 -23l-62 -73c-12 -14 -24 -28 -44 -28s-32 14 -44 28l-62 73c-9 10 -11 16 -11 23c0 14 12 26 26 26c6 0 13 -2 22 -8l17 -12c27 -19 36 -29 52 -29z" />
    <glyph glyph-name="Sacute" unicode="&#x15a;" horiz-adv-x="463" 
d="M166 235v-51c0 -42 16 -83 66 -83c39 0 69 25 69 84v50c0 62 -20 82 -57 103l-83 46c-81 46 -110 97 -110 178v84c0 110 72 186 181 186c106 0 179 -69 179 -191v-43c0 -18 -15 -32 -34 -32h-48c-19 0 -33 14 -33 32v42c0 59 -28 84 -65 84c-49 0 -66 -35 -66 -101v-35
c0 -62 12 -80 66 -109l72 -39c74 -40 112 -76 112 -190v-67c0 -130 -87 -190 -182 -190c-100 0 -182 65 -182 191v51c0 18 15 32 33 32h48c18 0 34 -14 34 -32zM326 963l-118 -86c-10 -7 -20 -11 -27 -11c-16 0 -27 11 -27 25c0 6 2 11 7 18l48 77c12 20 23 25 44 25h60
c17 0 27 -12 27 -24c0 -9 -3 -16 -14 -24z" />
    <glyph glyph-name="sacute" unicode="&#x15b;" horiz-adv-x="451" 
d="M290 163v14c0 32 -16 52 -48 70l-99 55c-70 39 -94 79 -94 141v33c0 55 38 166 178 166c98 0 176 -67 176 -178v-15c0 -18 -14 -32 -32 -32h-48c-18 0 -32 14 -32 32v6c0 21 -4 41 -14 55c-11 15 -28 26 -53 26c-44 0 -62 -39 -62 -64v-14c0 -22 7 -46 50 -70l102 -57
c70 -39 89 -80 89 -146v-26c0 -55 -38 -166 -178 -166c-98 0 -176 67 -176 178v15c0 18 14 32 32 32h48c18 0 32 -14 32 -32v-6c0 -21 4 -41 14 -55c11 -15 28 -26 53 -26c44 0 62 39 62 64zM318 777l-118 -86c-10 -7 -20 -11 -27 -11c-16 0 -27 11 -27 25c0 6 2 11 7 18
l48 77c12 20 23 25 44 25h60c17 0 27 -12 27 -24c0 -9 -3 -16 -14 -24z" />
    <glyph glyph-name="Scircumflex" unicode="&#x15c;" horiz-adv-x="463" 
d="M167 235v-51c0 -42 16 -83 66 -83c39 0 69 25 69 84v50c0 62 -20 82 -57 103l-83 46c-81 46 -110 97 -110 178v84c0 110 72 186 181 186c106 0 179 -69 179 -191v-43c0 -18 -15 -32 -34 -32h-48c-19 0 -33 14 -33 32v42c0 59 -28 84 -65 84c-49 0 -66 -35 -66 -101v-35
c0 -62 12 -80 66 -109l72 -39c74 -40 112 -76 112 -190v-67c0 -130 -87 -190 -182 -190c-100 0 -182 65 -182 191v51c0 18 15 32 33 32h48c18 0 34 -14 34 -32zM234 917c-16 0 -25 -10 -52 -29l-17 -12c-9 -6 -16 -8 -22 -8c-14 0 -26 12 -26 26c0 7 2 13 11 23l62 73
c12 14 24 28 44 28s32 -14 44 -28l62 -73c9 -10 11 -16 11 -23c0 -14 -12 -26 -26 -26c-6 0 -13 2 -22 8l-17 12c-27 19 -36 29 -52 29z" />
    <glyph glyph-name="scircumflex" unicode="&#x15d;" horiz-adv-x="451" 
d="M293 163v14c0 32 -16 52 -48 70l-99 55c-70 39 -94 79 -94 141v33c0 55 38 166 178 166c98 0 176 -67 176 -178v-15c0 -18 -14 -32 -32 -32h-48c-18 0 -32 14 -32 32v6c0 21 -4 41 -14 55c-11 15 -28 26 -53 26c-44 0 -62 -39 -62 -64v-14c0 -22 7 -46 50 -70l102 -57
c70 -39 89 -80 89 -146v-26c0 -55 -38 -166 -178 -166c-98 0 -176 67 -176 178v15c0 18 14 32 32 32h48c18 0 32 -14 32 -32v-6c0 -21 4 -41 14 -55c11 -15 28 -26 53 -26c44 0 62 39 62 64zM229 731c-16 0 -25 -10 -52 -29l-17 -12c-9 -6 -16 -8 -22 -8
c-14 0 -26 12 -26 26c0 7 2 13 11 23l62 73c12 14 24 28 44 28s32 -14 44 -28l62 -73c9 -10 11 -16 11 -23c0 -14 -12 -26 -26 -26c-6 0 -13 2 -22 8l-17 12c-27 19 -36 29 -52 29z" />
    <glyph glyph-name="Scedilla" unicode="&#x15e;" horiz-adv-x="463" 
d="M166 235v-51c0 -42 16 -83 66 -83c39 0 69 25 69 84v50c0 62 -20 82 -57 103l-83 46c-81 46 -110 97 -110 178v84c0 110 72 186 181 186c106 0 179 -69 179 -191v-43c0 -18 -15 -32 -34 -32h-48c-19 0 -33 14 -33 32v42c0 59 -28 84 -65 84c-49 0 -66 -35 -66 -101v-35
c0 -62 12 -80 66 -109l72 -39c74 -40 112 -76 112 -190v-67c0 -130 -87 -190 -182 -190c-100 0 -182 65 -182 191v51c0 18 15 32 33 32h48c18 0 34 -14 34 -32zM300 -97c0 -49 -45 -74 -88 -74c-17 0 -61 0 -61 27c0 36 64 11 64 47c0 35 -64 9 -64 47c0 17 19 26 61 26
c43 0 88 -24 88 -73z" />
    <glyph glyph-name="scedilla" unicode="&#x15f;" horiz-adv-x="451" 
d="M294 163v14c0 32 -16 52 -48 70l-99 55c-70 39 -94 79 -94 141v33c0 55 38 166 178 166c98 0 176 -67 176 -178v-15c0 -18 -14 -32 -32 -32h-48c-18 0 -32 14 -32 32v6c0 21 -4 41 -14 55c-11 15 -28 26 -53 26c-44 0 -62 -39 -62 -64v-14c0 -22 7 -46 50 -70l102 -57
c70 -39 89 -80 89 -146v-26c0 -55 -38 -166 -178 -166c-98 0 -176 67 -176 178v15c0 18 14 32 32 32h48c18 0 32 -14 32 -32v-6c0 -21 4 -41 14 -55c11 -15 28 -26 53 -26c44 0 62 39 62 64zM302 -97c0 -49 -45 -74 -88 -74c-17 0 -61 0 -61 27c0 36 64 11 64 47
c0 35 -64 9 -64 47c0 17 19 26 61 26c43 0 88 -24 88 -73z" />
    <glyph glyph-name="Scaron" unicode="&#x160;" horiz-adv-x="463" 
d="M165 235v-51c0 -42 16 -83 66 -83c39 0 69 25 69 84v50c0 62 -20 82 -57 103l-83 46c-81 46 -110 97 -110 178v84c0 110 72 186 181 186c106 0 179 -69 179 -191v-43c0 -18 -15 -32 -34 -32h-48c-19 0 -33 14 -33 32v42c0 59 -28 84 -65 84c-49 0 -66 -35 -66 -101v-35
c0 -62 12 -80 66 -109l72 -39c74 -40 112 -76 112 -190v-67c0 -130 -87 -190 -182 -190c-100 0 -182 65 -182 191v51c0 18 15 32 33 32h48c18 0 34 -14 34 -32zM232 969c16 0 25 10 52 29l17 12c9 6 16 8 22 8c14 0 26 -12 26 -26c0 -7 -2 -13 -11 -23l-62 -73
c-12 -14 -24 -28 -44 -28s-32 14 -44 28l-62 73c-9 10 -11 16 -11 23c0 14 12 26 26 26c6 0 13 -2 22 -8l17 -12c27 -19 36 -29 52 -29z" />
    <glyph glyph-name="scaron" unicode="&#x161;" horiz-adv-x="451" 
d="M290 163v14c0 32 -16 52 -48 70l-99 55c-70 39 -94 79 -94 141v33c0 55 38 166 178 166c98 0 176 -67 176 -178v-15c0 -18 -14 -32 -32 -32h-48c-18 0 -32 14 -32 32v6c0 21 -4 41 -14 55c-11 15 -28 26 -53 26c-44 0 -62 -39 -62 -64v-14c0 -22 7 -46 50 -70l102 -57
c70 -39 89 -80 89 -146v-26c0 -55 -38 -166 -178 -166c-98 0 -176 67 -176 178v15c0 18 14 32 32 32h48c18 0 32 -14 32 -32v-6c0 -21 4 -41 14 -55c11 -15 28 -26 53 -26c44 0 62 39 62 64zM225 783c16 0 25 10 52 29l17 12c9 6 16 8 22 8c14 0 26 -12 26 -26
c0 -7 -2 -13 -11 -23l-62 -73c-12 -14 -24 -28 -44 -28s-32 14 -44 28l-62 73c-9 10 -11 16 -11 23c0 14 12 26 26 26c6 0 13 -2 22 -8l17 -12c27 -19 36 -29 52 -29z" />
    <glyph glyph-name="uni0162" unicode="&#x162;" horiz-adv-x="412" 
d="M61 825h288c18 0 32 -14 32 -32v-48c0 -18 -14 -32 -32 -32h-63c-14 0 -23 -10 -23 -23v-658c0 -18 -14 -32 -33 -32h-50c-18 0 -32 14 -32 32v658c0 13 -10 23 -23 23h-64c-18 0 -32 14 -32 32v48c0 18 14 32 32 32zM276 -97c0 -49 -45 -74 -88 -74c-17 0 -61 0 -61 27
c0 36 64 11 64 47c0 35 -64 9 -64 47c0 17 19 26 61 26c43 0 88 -24 88 -73z" />
    <glyph glyph-name="uni0163" unicode="&#x163;" horiz-adv-x="336" 
d="M69 529h-14c-22 0 -32 20 -32 32v41c0 19 15 33 32 33h14c13 0 22 10 22 23v64c0 18 13 33 32 33h47c14 0 32 -12 32 -33v-63c0 -13 10 -24 24 -24h41c11 0 32 -8 32 -33v-44c0 -18 -16 -29 -32 -29h-41c-14 0 -24 -10 -24 -22v-353c0 -29 15 -47 42 -47h22
c18 0 33 -13 33 -32v-43c0 -17 -13 -32 -32 -32h-31c-98 0 -145 57 -145 147v360c0 13 -9 22 -22 22zM234 -97c0 -49 -45 -74 -88 -74c-17 0 -61 0 -61 27c0 36 64 11 64 47c0 35 -64 9 -64 47c0 17 19 26 61 26c43 0 88 -24 88 -73z" />
    <glyph glyph-name="Tcaron" unicode="&#x164;" horiz-adv-x="412" 
d="M59 825h288c18 0 32 -14 32 -32v-48c0 -18 -14 -32 -32 -32h-63c-14 0 -23 -10 -23 -23v-658c0 -18 -14 -32 -33 -32h-50c-18 0 -32 14 -32 32v658c0 13 -10 23 -23 23h-64c-18 0 -32 14 -32 32v48c0 18 14 32 32 32zM203 969c16 0 25 10 52 29l17 12c9 6 16 8 22 8
c14 0 26 -12 26 -26c0 -7 -2 -13 -11 -23l-62 -73c-12 -14 -24 -28 -44 -28s-32 14 -44 28l-62 73c-9 10 -11 16 -11 23c0 14 12 26 26 26c6 0 13 -2 22 -8l17 -12c27 -19 36 -29 52 -29z" />
    <glyph glyph-name="tcaron" unicode="&#x165;" horiz-adv-x="336" 
d="M279 799l1 8c2 12 11 18 26 18h38c18 0 27 -8 27 -26v-3c0 -22 -48 -122 -90 -122c-16 0 -29 11 -29 28c0 7 4 15 8 24l4 10c6 16 12 42 15 63zM70 529h-14c-22 0 -32 20 -32 32v41c0 19 15 33 32 33h14c13 0 22 10 22 23v64c0 18 13 33 32 33h47c14 0 32 -12 32 -33v-63
c0 -13 10 -24 24 -24h41c11 0 32 -8 32 -33v-44c0 -18 -16 -29 -32 -29h-41c-14 0 -24 -10 -24 -22v-353c0 -29 15 -47 42 -47h22c18 0 33 -13 33 -32v-43c0 -17 -13 -32 -32 -32h-31c-98 0 -145 57 -145 147v360c0 13 -9 22 -22 22z" />
    <glyph glyph-name="Tbar" unicode="&#x166;" horiz-adv-x="412" 
d="M149 31v293c0 13 -10 24 -24 24h-28c-19 0 -32 13 -32 30v43c0 19 13 31 32 31h29c14 0 23 10 23 23v216c0 13 -10 22 -23 22h-65c-18 0 -31 12 -31 31v50c0 17 13 31 31 31h290c19 0 31 -12 31 -31v-50c0 -17 -12 -31 -31 -31h-64c-14 0 -23 -9 -23 -22v-216
c0 -13 9 -23 23 -23h29c19 0 32 -12 32 -31v-43c0 -17 -13 -30 -32 -30h-29c-14 0 -23 -11 -23 -24v-293c0 -18 -12 -31 -31 -31h-54c-17 0 -30 13 -30 31z" />
    <glyph glyph-name="tbar" unicode="&#x167;" horiz-adv-x="364" 
d="M95 147v119c0 13 -9 22 -22 22h-14c-22 0 -32 20 -32 32v36c0 19 15 33 32 33h14c13 0 22 10 22 23v95c0 13 -9 22 -22 22h-14c-22 0 -32 20 -32 32v41c0 19 15 33 32 33h14c13 0 22 10 22 23v64c0 18 13 33 32 33h47c14 0 32 -12 32 -33v-63c0 -13 10 -24 24 -24h47
c11 0 32 -8 32 -33v-44c0 -18 -16 -29 -32 -29h-47c-14 0 -24 -10 -24 -22v-94c0 -13 10 -24 24 -24h29c11 0 32 -8 32 -33v-39c0 -18 -16 -29 -32 -29h-29c-14 0 -24 -10 -24 -22v-112c0 -29 15 -47 42 -47h28c18 0 33 -13 33 -32v-43c0 -17 -13 -32 -32 -32h-37
c-98 0 -145 57 -145 147z" />
    <glyph glyph-name="Utilde" unicode="&#x168;" 
d="M300 186v607c0 18 15 32 33 32h50c18 0 32 -14 32 -32v-615c0 -119 -77 -185 -181 -185c-98 0 -182 59 -182 187v613c0 18 14 32 32 32h51c18 0 32 -14 32 -32v-607c0 -58 26 -85 67 -85c38 0 66 24 66 85zM204 902l-8 7c-8 6 -12 10 -21 10s-17 -8 -20 -15l-3 -6
c-5 -11 -15 -18 -28 -18c-14 0 -28 10 -28 27c0 45 45 86 86 86c23 0 44 -5 63 -21c12 -10 21 -17 31 -17c11 0 16 7 20 15l3 6c5 10 15 18 28 18c14 0 28 -10 28 -27c0 -46 -45 -87 -84 -87c-25 0 -46 6 -67 22z" />
    <glyph glyph-name="utilde" unicode="&#x169;" horiz-adv-x="458" 
d="M164 603v-419c0 -31 5 -51 18 -65s28 -21 47 -21c18 0 34 7 46 21c13 14 19 34 19 65v419c0 18 14 32 32 32h48c18 0 32 -14 32 -32v-569c0 -13 -4 -23 -11 -30s-16 -10 -27 -10c-12 0 -23 5 -32 12l-4 3c-7 6 -13 9 -22 9c-10 0 -21 -8 -40 -15c-17 -6 -36 -10 -58 -10
c-37 0 -77 14 -107 43c-37 34 -53 82 -53 141v426c0 18 14 32 32 32h48c18 0 32 -14 32 -32zM208 731l-8 7c-8 6 -12 10 -21 10s-18 -8 -20 -15l-3 -6c-5 -11 -15 -18 -28 -18c-14 0 -28 10 -28 27c0 45 45 86 86 86c23 0 45 -5 64 -21c12 -10 20 -17 30 -17
c11 0 16 7 20 15l3 6c5 10 15 18 28 18c14 0 28 -10 28 -27c0 -46 -45 -87 -84 -87c-25 0 -46 6 -67 22z" />
    <glyph glyph-name="Umacron" unicode="&#x16a;" 
d="M300 186v607c0 18 15 32 33 32h50c18 0 32 -14 32 -32v-615c0 -119 -77 -185 -181 -185c-98 0 -182 59 -182 187v613c0 18 14 32 32 32h51c18 0 32 -14 32 -32v-607c0 -58 26 -85 67 -85c38 0 66 24 66 85zM359 940v-12c0 -23 -17 -28 -40 -28h-178c-20 0 -31 11 -31 28
v12c0 19 12 28 31 28h178c23 0 40 -4 40 -28z" />
    <glyph glyph-name="umacron" unicode="&#x16b;" horiz-adv-x="458" 
d="M164 603v-419c0 -31 5 -51 18 -65s28 -21 47 -21c18 0 34 7 46 21c13 14 19 34 19 65v419c0 18 14 32 32 32h48c18 0 32 -14 32 -32v-569c0 -13 -4 -23 -11 -30s-16 -10 -27 -10c-12 0 -23 5 -32 12l-4 3c-7 6 -13 9 -22 9c-10 0 -21 -8 -40 -15c-17 -6 -36 -10 -58 -10
c-37 0 -77 14 -107 43c-37 34 -53 82 -53 141v426c0 18 14 32 32 32h48c18 0 32 -14 32 -32zM361 763v-18c0 -22 -16 -28 -42 -28h-180c-25 0 -42 5 -42 28v18c0 24 17 28 42 28h180c25 0 42 -5 42 -28z" />
    <glyph glyph-name="Ubreve" unicode="&#x16c;" 
d="M300 186v607c0 18 15 32 33 32h50c18 0 32 -14 32 -32v-615c0 -119 -77 -185 -181 -185c-98 0 -182 59 -182 187v613c0 18 14 32 32 32h51c18 0 32 -14 32 -32v-607c0 -58 26 -85 67 -85c38 0 66 24 66 85zM234 869c-55 0 -105 32 -105 95c0 28 4 53 32 53
c8 0 14 -2 19 -6c7 -5 11 -13 11 -24v-5c0 -24 20 -40 43 -40c22 0 43 16 43 40v5c0 9 3 17 8 22s12 8 22 8c28 0 32 -25 32 -53c0 -63 -48 -95 -105 -95z" />
    <glyph glyph-name="ubreve" unicode="&#x16d;" horiz-adv-x="458" 
d="M164 603v-419c0 -31 5 -51 18 -65s28 -21 47 -21c18 0 34 7 46 21c13 14 19 34 19 65v419c0 18 14 32 32 32h48c18 0 32 -14 32 -32v-569c0 -13 -4 -23 -11 -30s-16 -10 -27 -10c-12 0 -23 5 -32 12l-4 3c-7 6 -13 9 -22 9c-10 0 -21 -8 -40 -15c-17 -6 -36 -10 -58 -10
c-37 0 -77 14 -107 43c-37 34 -53 82 -53 141v426c0 18 14 32 32 32h48c18 0 32 -14 32 -32zM230 681c-56 0 -105 34 -105 96c0 29 4 53 32 53c7 0 14 -2 19 -6c7 -4 11 -13 11 -24v-4c0 -25 20 -40 42 -40c23 0 43 15 44 40v4c0 10 2 18 8 23c5 5 12 7 22 7
c28 0 31 -24 31 -53c0 -62 -47 -96 -104 -96z" />
    <glyph glyph-name="Uring" unicode="&#x16e;" 
d="M300 186v607c0 18 15 32 33 32h50c18 0 32 -14 32 -32v-615c0 -119 -77 -185 -181 -185c-98 0 -182 59 -182 187v613c0 18 14 32 32 32h51c18 0 32 -14 32 -32v-607c0 -58 26 -85 67 -85c38 0 66 24 66 85zM203 940c0 -17 14 -31 31 -31s31 14 31 31s-14 31 -31 31
s-31 -14 -31 -31zM151 940c0 46 37 82 83 82s83 -36 83 -82s-37 -81 -83 -81s-83 35 -83 81z" />
    <glyph glyph-name="uring" unicode="&#x16f;" horiz-adv-x="458" 
d="M164 603v-419c0 -31 5 -51 18 -65s28 -21 47 -21c18 0 34 7 46 21c13 14 19 34 19 65v419c0 18 14 32 32 32h48c18 0 32 -14 32 -32v-569c0 -13 -4 -23 -11 -30s-16 -10 -27 -10c-12 0 -23 5 -32 12l-4 3c-7 6 -13 9 -22 9c-10 0 -21 -8 -40 -15c-17 -6 -36 -10 -58 -10
c-37 0 -77 14 -107 43c-37 34 -53 82 -53 141v426c0 18 14 32 32 32h48c18 0 32 -14 32 -32zM199 750c0 -17 14 -31 31 -31s30 14 30 31s-13 31 -30 31s-31 -14 -31 -31zM147 750c0 46 37 82 83 82c45 0 82 -36 82 -82s-37 -81 -82 -81c-46 0 -83 35 -83 81z" />
    <glyph glyph-name="Uhungarumlaut" unicode="&#x170;" 
d="M300 186v607c0 18 15 32 33 32h50c18 0 32 -14 32 -32v-615c0 -119 -77 -185 -181 -185c-98 0 -182 59 -182 187v613c0 18 14 32 32 32h51c18 0 32 -14 32 -32v-607c0 -58 26 -85 67 -85c38 0 66 24 66 85zM426 958l-114 -88c-10 -7 -19 -11 -26 -11c-16 0 -28 11 -28 25
c0 6 1 11 5 16l55 80c13 19 23 25 44 25h49c16 0 27 -13 27 -24c0 -9 -3 -15 -12 -23zM261 958l-114 -88c-10 -7 -19 -11 -26 -11c-16 0 -28 11 -28 25c0 6 2 10 7 18l53 78c12 19 23 25 44 25h49c16 0 27 -13 27 -24c0 -9 -3 -15 -12 -23z" />
    <glyph glyph-name="uhungarumlaut" unicode="&#x171;" horiz-adv-x="458" 
d="M164 603v-419c0 -31 5 -51 18 -65s28 -21 47 -21c18 0 34 7 46 21c13 14 19 34 19 65v419c0 18 14 32 32 32h48c18 0 32 -14 32 -32v-569c0 -13 -4 -23 -11 -30s-16 -10 -27 -10c-12 0 -23 5 -32 12l-4 3c-7 6 -13 9 -22 9c-10 0 -21 -8 -40 -15c-17 -6 -36 -10 -58 -10
c-37 0 -77 14 -107 43c-37 34 -53 82 -53 141v426c0 18 14 32 32 32h48c18 0 32 -14 32 -32zM255 778l-114 -88c-10 -7 -19 -11 -26 -11c-16 0 -28 11 -28 25c0 6 1 11 7 17l53 79c12 19 23 25 44 25h49c16 0 27 -13 27 -24c0 -9 -3 -15 -12 -23zM420 778l-114 -88
c-10 -7 -19 -11 -26 -11c-16 0 -28 11 -28 25c0 6 1 11 7 17l53 79c12 19 23 25 44 25h49c16 0 27 -13 27 -24c0 -9 -3 -15 -12 -23z" />
    <glyph glyph-name="Uogonek" unicode="&#x172;" 
d="M52 185v608c0 18 14 32 32 32h51c18 0 32 -14 32 -32v-607c0 -55 24 -85 67 -85c38 0 66 24 66 85v607c0 18 15 32 33 32h50c18 0 32 -14 32 -32v-605c0 -56 -9 -98 -44 -141c-13 -16 -114 -101 -114 -126c0 -14 13 -22 25 -22c14 0 22 14 39 14c11 0 28 -8 28 -29
c0 -32 -50 -55 -91 -55c-54 0 -88 26 -88 62c0 28 15 43 26 54l7 8c7 6 13 13 13 24c0 9 -8 23 -25 23h-6c-64 0 -133 67 -133 185z" />
    <glyph glyph-name="uogonek" unicode="&#x173;" horiz-adv-x="458" 
d="M264 1c-17 -4 -36 -8 -53 -8c-89 0 -159 75 -159 184v426c0 18 14 32 32 32h48c18 0 32 -14 32 -32v-419c0 -59 27 -86 66 -86c36 0 64 25 64 86v419c0 18 14 32 32 32h48c18 0 32 -14 32 -32v-572c0 -20 -8 -35 -21 -47l-39 -36c-16 -14 -20 -19 -20 -30
c0 -14 13 -22 25 -22c14 0 20 14 37 14c11 0 28 -7 28 -29c0 -26 -43 -52 -91 -52c-52 0 -86 24 -86 63c0 23 17 42 30 53l18 15c13 11 19 17 19 26s-16 17 -24 17c-5 0 -11 -1 -18 -2z" />
    <glyph glyph-name="Wcircumflex" unicode="&#x174;" horiz-adv-x="708" 
d="M52 178v615c0 18 14 32 32 32h51c18 0 32 -14 32 -32v-606c0 -60 27 -86 65 -86c35 0 65 23 65 86v606c0 18 15 32 33 32h50c18 0 32 -14 32 -32v-606c0 -60 27 -86 65 -86c35 0 65 23 65 86v606c0 18 14 32 32 32h51c18 0 32 -14 32 -32v-615c0 -128 -95 -183 -173 -183
c-35 0 -75 8 -103 28l-10 7c-7 4 -12 6 -18 6s-11 -2 -18 -6l-9 -7c-29 -20 -68 -28 -104 -28c-78 0 -170 53 -170 183zM354 917c-16 0 -25 -10 -52 -29l-17 -12c-9 -6 -16 -8 -22 -8c-14 0 -26 12 -26 26c0 7 2 13 11 23l62 73c12 14 24 28 44 28s32 -14 44 -28l62 -73
c9 -10 11 -16 11 -23c0 -14 -12 -26 -26 -26c-6 0 -13 2 -22 8l-17 12c-27 19 -36 29 -52 29z" />
    <glyph glyph-name="wcircumflex" unicode="&#x175;" horiz-adv-x="693" 
d="M642 603v-425c0 -129 -90 -184 -166 -184c-34 0 -69 5 -95 24l-16 11c-6 4 -11 6 -17 6c-5 0 -11 -2 -17 -6l-14 -11c-29 -18 -62 -24 -98 -24c-76 0 -167 50 -167 184v425c0 18 14 32 32 32h48c18 0 32 -14 32 -32v-418c0 -62 29 -86 65 -86c35 0 62 25 62 86v418
c0 18 14 32 32 32h48c18 0 32 -14 32 -32v-418c0 -62 26 -86 62 -86c35 0 65 25 65 86v418c0 18 14 32 32 32h48c18 0 32 -14 32 -32zM347 731c-16 0 -25 -10 -52 -29l-17 -12c-9 -6 -16 -8 -22 -8c-14 0 -26 12 -26 26c0 7 2 13 11 23l62 73c12 14 24 28 44 28
s32 -14 44 -28l62 -73c9 -10 11 -16 11 -23c0 -14 -12 -26 -26 -26c-6 0 -13 2 -22 8l-17 12c-27 19 -36 29 -52 29z" />
    <glyph glyph-name="Ycircumflex" unicode="&#x176;" 
d="M177 32v271c0 9 -5 17 -14 22l-8 4c-64 32 -103 82 -103 170v294c0 18 14 32 32 32h51c18 0 32 -14 32 -32v-286c0 -30 5 -51 19 -65c12 -13 29 -20 48 -20c18 0 35 7 48 20c13 14 18 35 18 65v286c0 18 15 32 33 32h50c18 0 32 -14 32 -32v-294
c0 -92 -44 -146 -100 -170l-7 -3c-9 -4 -16 -12 -16 -22v-272c0 -18 -14 -32 -32 -32h-51c-18 0 -32 14 -32 32zM234 917c-16 0 -25 -10 -52 -29l-17 -12c-9 -6 -16 -8 -22 -8c-14 0 -26 12 -26 26c0 7 2 13 11 23l62 73c12 14 24 28 44 28s32 -14 44 -28l62 -73
c9 -10 11 -16 11 -23c0 -14 -12 -26 -26 -26c-6 0 -13 2 -22 8l-17 12c-27 19 -36 29 -52 29z" />
    <glyph glyph-name="ycircumflex" unicode="&#x177;" horiz-adv-x="458" 
d="M406 603v-590c0 -107 -72 -184 -175 -184c-93 0 -177 69 -177 162v4c1 17 15 29 32 29h46c18 0 30 -11 33 -30c0 -37 30 -59 64 -59c40 0 65 26 65 83v37c0 13 -9 20 -21 20c-17 0 -38 -5 -60 -5h-7c-111 0 -154 109 -154 185v348c0 18 14 32 32 32h48
c18 0 32 -14 32 -33v-331c0 -70 20 -99 66 -99c44 0 64 29 64 99v332c0 18 14 32 32 32h48c18 0 32 -14 32 -32zM229 731c-16 0 -25 -10 -52 -29l-17 -12c-9 -6 -16 -8 -22 -8c-14 0 -26 12 -26 26c0 7 2 13 11 23l62 73c12 14 24 28 44 28s32 -14 44 -28l62 -73
c9 -10 11 -16 11 -23c0 -14 -12 -26 -26 -26c-6 0 -13 2 -22 8l-17 12c-27 19 -36 29 -52 29z" />
    <glyph glyph-name="Ydieresis" unicode="&#x178;" 
d="M177 32v271c0 9 -5 17 -14 22l-8 4c-64 32 -103 82 -103 170v294c0 18 14 32 32 32h51c18 0 32 -14 32 -32v-286c0 -30 5 -51 19 -65c12 -13 29 -20 48 -20c18 0 35 7 48 20c13 14 18 35 18 65v286c0 18 15 32 33 32h50c18 0 32 -14 32 -32v-294
c0 -92 -44 -146 -100 -170l-7 -3c-9 -4 -16 -12 -16 -22v-272c0 -18 -14 -32 -32 -32h-51c-18 0 -32 14 -32 32zM85 910v40c0 18 14 32 32 32h41c18 0 32 -14 32 -32v-40c0 -18 -14 -32 -32 -32h-41c-18 0 -32 14 -32 32zM279 910v40c0 18 14 32 32 32h41
c18 0 32 -14 32 -32v-40c0 -18 -14 -32 -32 -32h-41c-18 0 -32 14 -32 32z" />
    <glyph glyph-name="Zacute" unicode="&#x179;" horiz-adv-x="406" 
d="M42 32v40c0 13 3 25 9 44l147 494c17 58 22 80 22 81c0 13 -8 22 -24 22h-119c-19 0 -33 14 -33 32v47c0 18 14 33 33 33h245c19 0 33 -15 33 -33v-45c0 -4 -3 -20 -9 -40l-163 -545c-3 -10 -6 -25 -6 -28c0 -14 7 -22 23 -22h129c19 0 33 -15 33 -33v-47
c0 -18 -14 -32 -33 -32h-254c-19 0 -33 14 -33 32zM294 963l-118 -86c-10 -7 -20 -11 -27 -11c-16 0 -27 11 -27 25c0 6 2 11 7 18l48 77c12 20 23 25 44 25h60c17 0 27 -12 27 -24c0 -9 -3 -16 -14 -24z" />
    <glyph glyph-name="zacute" unicode="&#x17a;" horiz-adv-x="386" 
d="M42 32v26c0 17 0 35 5 50l10 26c39 100 76 200 115 300c9 23 26 59 26 74c0 13 -7 22 -23 22h-100c-18 0 -32 14 -32 32v40c0 18 14 33 32 33h223c18 0 32 -15 32 -33v-45c0 -13 -6 -37 -15 -57l-138 -357c-2 -5 -4 -14 -4 -16c0 -13 7 -22 23 -22h116
c18 0 32 -14 32 -32v-41c0 -18 -14 -32 -32 -32h-238c-18 0 -32 14 -32 32zM271 777l-118 -86c-10 -7 -20 -11 -27 -11c-16 0 -27 11 -27 25c0 6 2 11 7 18l48 77c12 20 23 25 44 25h60c17 0 27 -12 27 -24c0 -9 -3 -16 -14 -24z" />
    <glyph glyph-name="Zdotaccent" unicode="&#x17b;" horiz-adv-x="406" 
d="M42 32v40c0 13 3 25 9 44l147 494c17 58 22 80 22 81c0 13 -8 22 -24 22h-119c-19 0 -33 14 -33 32v47c0 18 14 33 33 33h245c19 0 33 -15 33 -33v-45c0 -4 -3 -20 -9 -40l-163 -545c-3 -10 -6 -25 -6 -28c0 -14 7 -22 23 -22h129c19 0 33 -15 33 -33v-47
c0 -18 -14 -32 -33 -32h-254c-19 0 -33 14 -33 32zM140 907v49c0 18 14 32 32 32h51c18 0 32 -14 32 -32v-49c0 -18 -14 -32 -32 -32h-51c-18 0 -32 14 -32 32z" />
    <glyph glyph-name="zdotaccent" unicode="&#x17c;" horiz-adv-x="386" 
d="M42 32v26c0 17 0 35 5 50l10 26c39 100 76 200 115 300c9 23 26 59 26 74c0 13 -7 22 -23 22h-100c-18 0 -32 14 -32 32v40c0 18 14 33 32 33h223c18 0 32 -15 32 -33v-45c0 -13 -6 -37 -15 -57l-138 -357c-2 -5 -4 -14 -4 -16c0 -13 7 -22 23 -22h116
c18 0 32 -14 32 -32v-41c0 -18 -14 -32 -32 -32h-238c-18 0 -32 14 -32 32zM129 744v49c0 18 14 32 32 32h51c18 0 32 -14 32 -32v-49c0 -18 -14 -32 -32 -32h-51c-18 0 -32 14 -32 32z" />
    <glyph glyph-name="Zcaron" unicode="&#x17d;" horiz-adv-x="406" 
d="M43 32v40c0 13 3 25 9 44l147 494c17 58 22 80 22 81c0 13 -8 22 -24 22h-119c-19 0 -33 14 -33 32v47c0 18 14 33 33 33h245c19 0 33 -15 33 -33v-45c0 -4 -3 -20 -9 -40l-163 -545c-3 -10 -6 -25 -6 -28c0 -14 7 -22 23 -22h129c19 0 33 -15 33 -33v-47
c0 -18 -14 -32 -33 -32h-254c-19 0 -33 14 -33 32zM202 969c16 0 25 10 52 29l17 12c9 6 16 8 22 8c14 0 26 -12 26 -26c0 -7 -2 -13 -11 -23l-62 -73c-12 -14 -24 -28 -44 -28s-32 14 -44 28l-62 73c-9 10 -11 16 -11 23c0 14 12 26 26 26c6 0 13 -2 22 -8l17 -12
c27 -19 36 -29 52 -29z" />
    <glyph glyph-name="zcaron" unicode="&#x17e;" horiz-adv-x="386" 
d="M42 32v26c0 17 0 35 5 50l10 26c39 100 76 200 115 300c9 23 26 59 26 74c0 13 -7 22 -23 22h-100c-18 0 -32 14 -32 32v40c0 18 14 33 32 33h223c18 0 32 -15 32 -33v-45c0 -13 -6 -37 -15 -57l-138 -357c-2 -5 -4 -14 -4 -16c0 -13 7 -22 23 -22h116
c18 0 32 -14 32 -32v-41c0 -18 -14 -32 -32 -32h-238c-18 0 -32 14 -32 32zM187 783c16 0 25 10 52 29l17 12c9 6 16 8 22 8c14 0 26 -12 26 -26c0 -7 -2 -13 -11 -23l-62 -73c-12 -14 -24 -28 -44 -28s-32 14 -44 28l-62 73c-9 10 -11 16 -11 23c0 14 12 26 26 26
c6 0 13 -2 22 -8l17 -12c27 -19 36 -29 52 -29z" />
    <glyph glyph-name="longs" unicode="&#x17f;" horiz-adv-x="273" 
d="M209 660v-629c0 -19 -12 -31 -30 -31h-51c-17 0 -30 13 -30 31v475c0 13 -9 23 -22 23h-21c-19 0 -31 12 -31 31v44c0 17 12 31 31 31h21c13 0 22 9 22 22v12c0 100 62 156 156 156h31c19 0 31 -12 31 -31v-47c0 -17 -12 -31 -31 -31h-28c-18 0 -30 -6 -37 -16
s-11 -23 -11 -40z" />
    <glyph glyph-name="uni0218" unicode="&#x218;" horiz-adv-x="463" 
d="M165 235v-51c0 -42 16 -83 66 -83c39 0 69 25 69 84v50c0 62 -20 82 -57 103l-83 46c-81 46 -110 97 -110 178v84c0 110 72 186 181 186c106 0 179 -69 179 -191v-43c0 -18 -15 -32 -34 -32h-48c-19 0 -33 14 -33 32v42c0 59 -28 84 -65 84c-49 0 -66 -35 -66 -101v-35
c0 -62 12 -80 66 -109l72 -39c74 -40 112 -76 112 -190v-67c0 -130 -87 -190 -182 -190c-100 0 -182 65 -182 191v51c0 18 15 32 33 32h48c18 0 34 -14 34 -32zM222 -30h20c18 0 30 -11 30 -27c0 -42 -30 -88 -70 -107c-10 -4 -20 -7 -30 -7c-13 0 -24 8 -24 24
c0 9 5 16 12 23c18 19 24 35 29 63l1 6c3 15 15 25 32 25z" />
    <glyph glyph-name="uni0219" unicode="&#x219;" horiz-adv-x="451" 
d="M290 163v14c0 32 -16 52 -48 70l-99 55c-70 39 -94 79 -94 141v33c0 55 38 166 178 166c98 0 176 -67 176 -178v-15c0 -18 -14 -32 -32 -32h-48c-18 0 -32 14 -32 32v6c0 21 -4 41 -14 55c-11 15 -28 26 -53 26c-44 0 -62 -39 -62 -64v-14c0 -22 7 -46 50 -70l102 -57
c70 -39 89 -80 89 -146v-26c0 -55 -38 -166 -178 -166c-98 0 -176 67 -176 178v15c0 18 14 32 32 32h48c18 0 32 -14 32 -32v-6c0 -21 4 -41 14 -55c11 -15 28 -26 53 -26c44 0 62 39 62 64zM221 -30h20c18 0 30 -11 30 -27c0 -42 -30 -88 -70 -107c-10 -4 -20 -7 -30 -7
c-13 0 -24 8 -24 24c0 9 5 16 12 23c18 19 24 35 29 63l1 6c3 15 15 25 32 25z" />
    <glyph glyph-name="uni021A" unicode="&#x21a;" horiz-adv-x="412" 
d="M59 825h288c18 0 32 -14 32 -32v-48c0 -18 -14 -32 -32 -32h-63c-14 0 -23 -10 -23 -23v-658c0 -18 -14 -32 -33 -32h-50c-18 0 -32 14 -32 32v658c0 13 -10 23 -23 23h-64c-18 0 -32 14 -32 32v48c0 18 14 32 32 32zM195 -30h20c18 0 30 -11 30 -27
c0 -42 -30 -88 -70 -107c-10 -4 -20 -7 -30 -7c-13 0 -24 8 -24 24c0 9 5 16 12 23c18 19 24 35 29 63l1 6c3 15 15 25 32 25z" />
    <glyph glyph-name="uni021B" unicode="&#x21b;" horiz-adv-x="336" 
d="M70 529h-14c-22 0 -32 20 -32 32v41c0 19 15 33 32 33h14c13 0 22 10 22 23v64c0 18 13 33 32 33h47c14 0 32 -12 32 -33v-63c0 -13 10 -24 24 -24h41c11 0 32 -8 32 -33v-44c0 -18 -16 -29 -32 -29h-41c-14 0 -24 -10 -24 -22v-353c0 -29 15 -47 42 -47h22
c18 0 33 -13 33 -32v-43c0 -17 -13 -32 -32 -32h-31c-98 0 -145 57 -145 147v360c0 13 -9 22 -22 22zM180 -30h20c18 0 30 -11 30 -27c0 -42 -30 -88 -70 -107c-10 -4 -20 -7 -30 -7c-13 0 -24 8 -24 24c0 9 5 16 12 23c18 19 24 35 29 63l1 6c3 15 15 25 32 25z" />
    <glyph glyph-name="Wgrave" unicode="&#x1e80;" horiz-adv-x="708" 
d="M52 178v615c0 18 14 32 32 32h51c18 0 32 -14 32 -32v-606c0 -60 27 -86 65 -86c35 0 65 23 65 86v606c0 18 15 32 33 32h50c18 0 32 -14 32 -32v-606c0 -60 27 -86 65 -86c35 0 65 23 65 86v606c0 18 14 32 32 32h51c18 0 32 -14 32 -32v-615c0 -128 -95 -183 -173 -183
c-35 0 -75 8 -103 28l-10 7c-7 4 -12 6 -18 6s-11 -2 -18 -6l-9 -7c-29 -20 -68 -28 -104 -28c-78 0 -170 53 -170 183zM367 878l-122 87c-9 7 -11 14 -11 22c0 12 10 24 27 24h58c21 0 32 -5 44 -24l51 -78c5 -7 7 -12 7 -17c0 -14 -11 -26 -27 -26c-7 0 -17 4 -27 12z" />
    <glyph glyph-name="wgrave" unicode="&#x1e81;" horiz-adv-x="693" 
d="M642 603v-425c0 -129 -90 -184 -166 -184c-34 0 -69 5 -95 24l-16 11c-6 4 -11 6 -17 6c-5 0 -11 -2 -17 -6l-14 -11c-29 -18 -62 -24 -98 -24c-76 0 -167 50 -167 184v425c0 18 14 32 32 32h48c18 0 32 -14 32 -32v-418c0 -62 29 -86 65 -86c35 0 62 25 62 86v418
c0 18 14 32 32 32h48c18 0 32 -14 32 -32v-418c0 -62 26 -86 62 -86c35 0 65 25 65 86v418c0 18 14 32 32 32h48c18 0 32 -14 32 -32zM364 692l-122 87c-9 7 -11 14 -11 22c0 12 10 24 27 24h58c21 0 32 -5 44 -24l51 -78c5 -7 7 -12 7 -17c0 -14 -11 -26 -27 -26
c-7 0 -17 4 -27 12z" />
    <glyph glyph-name="Wacute" unicode="&#x1e82;" horiz-adv-x="708" 
d="M52 178v615c0 18 14 32 32 32h51c18 0 32 -14 32 -32v-606c0 -60 27 -86 65 -86c35 0 65 23 65 86v606c0 18 15 32 33 32h50c18 0 32 -14 32 -32v-606c0 -60 27 -86 65 -86c35 0 65 23 65 86v606c0 18 14 32 32 32h51c18 0 32 -14 32 -32v-615c0 -128 -95 -183 -173 -183
c-35 0 -75 8 -103 28l-10 7c-7 4 -12 6 -18 6s-11 -2 -18 -6l-9 -7c-29 -20 -68 -28 -104 -28c-78 0 -170 53 -170 183zM466 963l-118 -86c-10 -7 -20 -11 -27 -11c-16 0 -27 11 -27 25c0 6 2 11 7 18l48 77c12 20 23 25 44 25h60c17 0 27 -12 27 -24c0 -9 -3 -16 -14 -24z
" />
    <glyph glyph-name="wacute" unicode="&#x1e83;" horiz-adv-x="693" 
d="M642 603v-425c0 -129 -90 -184 -166 -184c-34 0 -69 5 -95 24l-16 11c-6 4 -11 6 -17 6c-5 0 -11 -2 -17 -6l-14 -11c-29 -18 -62 -24 -98 -24c-76 0 -167 50 -167 184v425c0 18 14 32 32 32h48c18 0 32 -14 32 -32v-418c0 -62 29 -86 65 -86c35 0 62 25 62 86v418
c0 18 14 32 32 32h48c18 0 32 -14 32 -32v-418c0 -62 26 -86 62 -86c35 0 65 25 65 86v418c0 18 14 32 32 32h48c18 0 32 -14 32 -32zM456 777l-118 -86c-10 -7 -20 -11 -27 -11c-16 0 -27 11 -27 25c0 6 2 11 7 18l48 77c12 20 23 25 44 25h60c17 0 27 -12 27 -24
c0 -9 -3 -16 -14 -24z" />
    <glyph glyph-name="Wdieresis" unicode="&#x1e84;" horiz-adv-x="708" 
d="M52 178v615c0 18 14 32 32 32h51c18 0 32 -14 32 -32v-606c0 -60 27 -86 65 -86c35 0 65 23 65 86v606c0 18 15 32 33 32h50c18 0 32 -14 32 -32v-606c0 -60 27 -86 65 -86c35 0 65 23 65 86v606c0 18 14 32 32 32h51c18 0 32 -14 32 -32v-615c0 -128 -95 -183 -173 -183
c-35 0 -75 8 -103 28l-10 7c-7 4 -12 6 -18 6s-11 -2 -18 -6l-9 -7c-29 -20 -68 -28 -104 -28c-78 0 -170 53 -170 183zM205 910v40c0 18 14 32 32 32h41c18 0 32 -14 32 -32v-40c0 -18 -14 -32 -32 -32h-41c-18 0 -32 14 -32 32zM399 910v40c0 18 14 32 32 32h41
c18 0 32 -14 32 -32v-40c0 -18 -14 -32 -32 -32h-41c-18 0 -32 14 -32 32z" />
    <glyph glyph-name="wdieresis" unicode="&#x1e85;" horiz-adv-x="693" 
d="M642 603v-425c0 -129 -90 -184 -166 -184c-34 0 -69 5 -95 24l-16 11c-6 4 -11 6 -17 6c-5 0 -11 -2 -17 -6l-14 -11c-29 -18 -62 -24 -98 -24c-76 0 -167 50 -167 184v425c0 18 14 32 32 32h48c18 0 32 -14 32 -32v-418c0 -62 29 -86 65 -86c35 0 62 25 62 86v418
c0 18 14 32 32 32h48c18 0 32 -14 32 -32v-418c0 -62 26 -86 62 -86c35 0 65 25 65 86v418c0 18 14 32 32 32h48c18 0 32 -14 32 -32zM198 734v39c0 18 14 32 32 32h41c18 0 32 -14 32 -32v-39c0 -18 -14 -32 -32 -32h-41c-18 0 -32 14 -32 32zM392 734v39c0 18 14 32 32 32
h41c18 0 32 -14 32 -32v-39c0 -18 -14 -32 -32 -32h-41c-18 0 -32 14 -32 32z" />
    <glyph glyph-name="yacute" unicode="&#xfd;" horiz-adv-x="458" 
d="M416 603v-590c0 -107 -72 -184 -175 -184c-93 0 -177 69 -177 162v4c1 17 15 29 32 29h46c18 0 30 -11 33 -30c0 -37 30 -59 64 -59c40 0 65 26 65 83v37c0 13 -9 20 -21 20c-17 0 -38 -5 -60 -5h-7c-111 0 -154 109 -154 185v348c0 18 14 32 32 32h48
c18 0 32 -14 32 -33v-331c0 -70 20 -99 66 -99c44 0 64 29 64 99v332c0 18 14 32 32 32h48c18 0 32 -14 32 -32zM318 777l-118 -86c-10 -7 -20 -11 -27 -11c-16 0 -27 11 -27 25c0 6 2 11 7 18l48 77c12 20 23 25 44 25h60c17 0 27 -12 27 -24c0 -9 -3 -16 -14 -24z" />
    <glyph glyph-name="Agrave" unicode="&#xc0;" 
d="M300 459v169c0 67 -23 96 -66 96c-42 0 -67 -27 -67 -96v-169c0 -10 8 -22 23 -22h87c13 0 23 10 23 22zM52 32v608c0 129 82 192 182 192c99 0 181 -63 181 -192v-608c0 -18 -14 -32 -32 -32h-50c-18 0 -33 14 -33 32v278c0 12 -10 22 -23 22h-87c-15 0 -23 -12 -23 -22
v-278c0 -18 -14 -32 -32 -32h-51c-18 0 -32 14 -32 32zM259 878l-122 87c-9 7 -11 14 -11 22c0 12 10 24 27 24h58c21 0 32 -5 44 -24l51 -78c5 -7 7 -12 7 -17c0 -14 -11 -26 -27 -26c-7 0 -17 4 -27 12z" />
    <glyph glyph-name="Aacute" unicode="&#xc1;" horiz-adv-x="457" 
d="M300 459v169c0 67 -23 96 -66 96c-42 0 -67 -27 -67 -96v-169c0 -10 8 -22 23 -22h87c13 0 23 10 23 22zM52 32v608c0 129 82 192 182 192c99 0 181 -63 181 -192v-608c0 -18 -14 -32 -32 -32h-50c-18 0 -33 14 -33 32v278c0 12 -10 22 -23 22h-87c-15 0 -23 -12 -23 -22
v-278c0 -18 -14 -32 -32 -32h-51c-18 0 -32 14 -32 32zM321 963l-118 -86c-10 -7 -20 -11 -27 -11c-16 0 -27 11 -27 25c0 6 2 11 7 18l48 77c12 20 23 25 44 25h60c17 0 27 -12 27 -24c0 -9 -3 -16 -14 -24z" />
    <glyph glyph-name="Acircumflex" unicode="&#xc2;" horiz-adv-x="457" 
d="M300 459v169c0 67 -23 96 -66 96c-42 0 -67 -27 -67 -96v-169c0 -10 8 -22 23 -22h87c13 0 23 10 23 22zM52 32v608c0 129 82 192 182 192c99 0 181 -63 181 -192v-608c0 -18 -14 -32 -32 -32h-50c-18 0 -33 14 -33 32v278c0 12 -10 22 -23 22h-87c-15 0 -23 -12 -23 -22
v-278c0 -18 -14 -32 -32 -32h-51c-18 0 -32 14 -32 32zM234 917c-16 0 -25 -10 -52 -29l-17 -12c-9 -6 -16 -8 -22 -8c-14 0 -26 12 -26 26c0 7 2 13 11 23l62 73c12 14 24 28 44 28s32 -14 44 -28l62 -73c9 -10 11 -16 11 -23c0 -14 -12 -26 -26 -26c-6 0 -13 2 -22 8
l-17 12c-27 19 -36 29 -52 29z" />
    <glyph glyph-name="Atilde" unicode="&#xc3;" 
d="M300 459v169c0 67 -23 96 -66 96c-42 0 -67 -27 -67 -96v-169c0 -10 8 -22 23 -22h87c13 0 23 10 23 22zM52 32v608c0 129 82 192 182 192c99 0 181 -63 181 -192v-608c0 -18 -14 -32 -32 -32h-50c-18 0 -33 14 -33 32v278c0 12 -10 22 -23 22h-87c-15 0 -23 -12 -23 -22
v-278c0 -18 -14 -32 -32 -32h-51c-18 0 -32 14 -32 32zM213 899l-8 7c-8 6 -12 10 -21 10s-17 -8 -20 -15l-3 -6c-5 -11 -15 -18 -28 -18c-14 0 -28 10 -28 27c0 45 45 86 86 86c23 0 44 -5 63 -21c12 -10 21 -17 31 -17c11 0 16 7 20 15l3 6c5 10 15 18 28 18
c14 0 28 -10 28 -27c0 -46 -45 -87 -84 -87c-25 0 -46 6 -67 22z" />
    <glyph glyph-name="Egrave" unicode="&#xc8;" horiz-adv-x="367" 
d="M300 0h-216c-18 0 -32 14 -32 32v761c0 18 14 32 32 32h216c18 0 32 -14 32 -32v-48c0 -18 -14 -30 -32 -32h-110c-14 0 -23 -10 -23 -23v-196c0 -13 9 -23 23 -23h100c18 0 32 -14 32 -32v-48c0 -18 -14 -32 -32 -32h-100c-14 0 -23 -10 -23 -23v-201
c0 -13 9 -23 23 -23h110c18 0 32 -14 32 -32v-48c0 -18 -14 -32 -32 -32zM223 878l-122 87c-9 7 -11 14 -11 22c0 12 10 24 27 24h58c21 0 32 -5 44 -24l51 -78c5 -7 7 -12 7 -17c0 -14 -11 -26 -27 -26c-7 0 -17 4 -27 12z" />
    <glyph glyph-name="Ecircumflex" unicode="&#xca;" horiz-adv-x="367" 
d="M300 0h-216c-18 0 -32 14 -32 32v761c0 18 14 32 32 32h216c18 0 32 -14 32 -32v-48c0 -18 -14 -30 -32 -32h-110c-14 0 -23 -10 -23 -23v-196c0 -13 9 -23 23 -23h100c18 0 32 -14 32 -32v-48c0 -18 -14 -32 -32 -32h-100c-14 0 -23 -10 -23 -23v-201
c0 -13 9 -23 23 -23h110c18 0 32 -14 32 -32v-48c0 -18 -14 -32 -32 -32zM190 917c-16 0 -25 -10 -52 -29l-17 -12c-9 -6 -16 -8 -22 -8c-14 0 -26 12 -26 26c0 7 2 13 11 23l62 73c12 14 24 28 44 28s32 -14 44 -28l62 -73c9 -10 11 -16 11 -23c0 -14 -12 -26 -26 -26
c-6 0 -13 2 -22 8l-17 12c-27 19 -36 29 -52 29z" />
    <glyph glyph-name="Edieresis" unicode="&#xcb;" horiz-adv-x="374" 
d="M229 910v40c0 18 14 32 32 32h39c18 0 32 -14 32 -32v-40c0 -18 -14 -32 -32 -32h-39c-18 0 -32 14 -32 32zM52 910v40c0 18 14 32 32 32h39c18 0 32 -14 32 -32v-40c0 -18 -14 -32 -32 -32h-39c-18 0 -32 14 -32 32zM300 0h-216c-18 0 -32 14 -32 32v761
c0 18 14 32 32 32h216c18 0 32 -14 32 -32v-48c0 -18 -14 -30 -32 -32h-110c-14 0 -23 -10 -23 -23v-196c0 -13 9 -23 23 -23h100c18 0 32 -14 32 -32v-48c0 -18 -14 -32 -32 -32h-100c-14 0 -23 -10 -23 -23v-201c0 -13 9 -23 23 -23h110c18 0 32 -14 32 -32v-48
c0 -18 -14 -32 -32 -32z" />
    <glyph glyph-name="Igrave" unicode="&#xcc;" horiz-adv-x="228" 
d="M133 878l-122 87c-9 7 -11 14 -11 22c0 12 10 24 27 24h58c21 0 32 -5 44 -24l51 -78c5 -7 7 -12 7 -17c0 -14 -11 -26 -27 -26c-7 0 -17 4 -27 12zM171 792v-760c0 -18 -14 -32 -32 -32h-51c-18 0 -32 14 -32 32v761c0 18 14 32 32 32h51c18 0 32 -15 32 -33z" />
    <glyph glyph-name="Iacute" unicode="&#xcd;" horiz-adv-x="228" 
d="M223 963l-118 -86c-10 -7 -20 -11 -27 -11c-16 0 -27 11 -27 25c0 6 2 11 7 18l48 77c12 20 23 25 44 25h60c17 0 27 -12 27 -24c0 -9 -3 -16 -14 -24zM171 792v-760c0 -18 -14 -32 -32 -32h-51c-18 0 -32 14 -32 32v761c0 18 14 32 32 32h51c18 0 32 -15 32 -33z" />
    <glyph glyph-name="Icircumflex" unicode="&#xce;" horiz-adv-x="228" 
d="M114 917c-16 0 -25 -10 -52 -29l-17 -12c-9 -6 -16 -8 -22 -8c-14 0 -26 12 -26 26c0 7 2 13 11 23l62 73c12 14 24 28 44 28s32 -14 44 -28l62 -73c9 -10 11 -16 11 -23c0 -14 -12 -26 -26 -26c-6 0 -13 2 -22 8l-17 12c-27 19 -36 29 -52 29zM171 792v-760
c0 -18 -14 -32 -32 -32h-51c-18 0 -32 14 -32 32v761c0 18 14 32 32 32h51c18 0 32 -15 32 -33z" />
    <glyph glyph-name="Idieresis" unicode="&#xcf;" horiz-adv-x="228" 
d="M80 951v-43c0 -18 -13 -30 -31 -30h-42c-19 0 -31 12 -31 30v43c0 19 12 31 31 31h42c18 0 31 -12 31 -31zM252 951v-43c0 -18 -12 -30 -31 -30h-42c-18 0 -30 12 -30 30v43c0 19 12 31 30 31h42c19 0 31 -12 31 -31zM171 792v-760c0 -18 -14 -32 -32 -32h-51
c-18 0 -32 14 -32 32v761c0 18 14 32 32 32h51c18 0 32 -15 32 -33z" />
    <glyph glyph-name="Ograve" unicode="&#xd2;" 
d="M167 638v-452c0 -59 28 -85 67 -85c36 0 66 22 66 85v452c0 63 -30 86 -66 86c-40 0 -67 -26 -67 -86zM415 640v-456c0 -126 -77 -191 -181 -191c-99 0 -182 61 -182 191v456c0 129 81 192 182 192c99 0 181 -63 181 -192zM249 878l-122 87c-9 7 -11 14 -11 22
c0 12 10 24 27 24h58c21 0 32 -5 44 -24l51 -78c5 -7 7 -12 7 -17c0 -14 -11 -26 -27 -26c-7 0 -17 4 -27 12z" />
    <glyph glyph-name="Oacute" unicode="&#xd3;" 
d="M167 638v-452c0 -59 28 -85 67 -85c36 0 66 22 66 85v452c0 63 -30 86 -66 86c-40 0 -67 -26 -67 -86zM415 640v-456c0 -126 -77 -191 -181 -191c-99 0 -182 61 -182 191v456c0 129 81 192 182 192c99 0 181 -63 181 -192zM336 963l-118 -86c-10 -7 -20 -11 -27 -11
c-16 0 -27 11 -27 25c0 6 2 11 7 18l48 77c12 20 23 25 44 25h60c17 0 27 -12 27 -24c0 -9 -3 -16 -14 -24z" />
    <glyph glyph-name="Ocircumflex" unicode="&#xd4;" 
d="M167 638v-452c0 -59 28 -85 67 -85c36 0 66 22 66 85v452c0 63 -30 86 -66 86c-40 0 -67 -26 -67 -86zM415 640v-456c0 -126 -77 -191 -181 -191c-99 0 -182 61 -182 191v456c0 129 81 192 182 192c99 0 181 -63 181 -192zM234 917c-16 0 -25 -10 -52 -29l-17 -12
c-9 -6 -16 -8 -22 -8c-14 0 -26 12 -26 26c0 7 2 13 11 23l62 73c12 14 24 28 44 28s32 -14 44 -28l62 -73c9 -10 11 -16 11 -23c0 -14 -12 -26 -26 -26c-6 0 -13 2 -22 8l-17 12c-27 19 -36 29 -52 29z" />
    <glyph glyph-name="Otilde" unicode="&#xd5;" 
d="M167 638v-452c0 -59 28 -85 67 -85c36 0 66 22 66 85v452c0 63 -30 86 -66 86c-40 0 -67 -26 -67 -86zM415 640v-456c0 -126 -77 -191 -181 -191c-99 0 -182 61 -182 191v456c0 129 81 192 182 192c99 0 181 -63 181 -192zM213 899l-8 7c-8 6 -12 10 -21 10
s-17 -8 -20 -15l-3 -6c-5 -11 -15 -18 -28 -18c-14 0 -28 10 -28 27c0 45 45 86 86 86c23 0 44 -5 63 -21c12 -10 21 -17 31 -17c11 0 16 7 20 15l3 6c5 10 15 18 28 18c14 0 28 -10 28 -27c0 -46 -45 -87 -84 -87c-25 0 -46 6 -67 22z" />
    <glyph glyph-name="Ugrave" unicode="&#xd9;" 
d="M300 186v607c0 18 15 32 33 32h50c18 0 32 -14 32 -32v-615c0 -119 -77 -185 -181 -185c-98 0 -182 59 -182 187v613c0 18 14 32 32 32h51c18 0 32 -14 32 -32v-607c0 -58 26 -85 67 -85c38 0 66 24 66 85zM254 878l-122 87c-9 7 -11 14 -11 22c0 12 10 24 27 24h58
c21 0 32 -5 44 -24l51 -78c5 -7 7 -12 7 -17c0 -14 -11 -26 -27 -26c-7 0 -17 4 -27 12z" />
    <glyph glyph-name="Uacute" unicode="&#xda;" 
d="M300 186v607c0 18 15 32 33 32h50c18 0 32 -14 32 -32v-615c0 -119 -77 -185 -181 -185c-98 0 -182 59 -182 187v613c0 18 14 32 32 32h51c18 0 32 -14 32 -32v-607c0 -58 26 -85 67 -85c38 0 66 24 66 85zM326 963l-118 -86c-10 -7 -20 -11 -27 -11c-16 0 -27 11 -27 25
c0 6 2 11 7 18l48 77c12 20 23 25 44 25h60c17 0 27 -12 27 -24c0 -9 -3 -16 -14 -24z" />
    <glyph glyph-name="Ucircumflex" unicode="&#xdb;" 
d="M300 186v607c0 18 15 32 33 32h50c18 0 32 -14 32 -32v-615c0 -119 -77 -185 -181 -185c-98 0 -182 59 -182 187v613c0 18 14 32 32 32h51c18 0 32 -14 32 -32v-607c0 -58 26 -85 67 -85c38 0 66 24 66 85zM234 917c-16 0 -25 -10 -52 -29l-17 -12c-9 -6 -16 -8 -22 -8
c-14 0 -26 12 -26 26c0 7 2 13 11 23l62 73c12 14 24 28 44 28s32 -14 44 -28l62 -73c9 -10 11 -16 11 -23c0 -14 -12 -26 -26 -26c-6 0 -13 2 -22 8l-17 12c-27 19 -36 29 -52 29z" />
    <glyph glyph-name="Yacute" unicode="&#xdd;" 
d="M177 32v271c0 9 -5 17 -14 22l-8 4c-64 32 -103 82 -103 170v294c0 18 14 32 32 32h51c18 0 32 -14 32 -32v-286c0 -30 5 -51 19 -65c12 -13 29 -20 48 -20c18 0 35 7 48 20c13 14 18 35 18 65v286c0 18 15 32 33 32h50c18 0 32 -14 32 -32v-294
c0 -92 -44 -146 -100 -170l-7 -3c-9 -4 -16 -12 -16 -22v-272c0 -18 -14 -32 -32 -32h-51c-18 0 -32 14 -32 32zM325 963l-118 -86c-10 -7 -20 -11 -27 -11c-16 0 -27 11 -27 25c0 6 2 11 7 18l48 77c12 20 23 25 44 25h60c17 0 27 -12 27 -24c0 -9 -3 -16 -14 -24z" />
    <glyph glyph-name="Thorn" unicode="&#xde;" 
d="M190 275h42c38 0 69 17 69 107v74c0 83 -28 107 -69 107h-41c-15 0 -24 -8 -24 -22v-244c0 -14 9 -22 23 -22zM167 145v-113c0 -18 -14 -32 -32 -32h-51c-18 0 -32 14 -32 32v761c0 18 14 32 32 32h51c18 0 32 -15 32 -33v-96c0 -13 9 -23 23 -23h47
c102 0 180 -62 180 -199v-110c0 -133 -73 -196 -180 -196h-47c-14 0 -23 -10 -23 -23z" />
    <glyph glyph-name="ydieresis" unicode="&#xff;" horiz-adv-x="458" 
d="M406 603v-590c0 -107 -72 -184 -175 -184c-93 0 -177 69 -177 162v4c1 17 15 29 32 29h46c18 0 30 -11 33 -30c0 -37 30 -59 64 -59c40 0 65 26 65 83v37c0 13 -9 20 -21 20c-17 0 -38 -5 -60 -5h-7c-111 0 -154 109 -154 185v348c0 18 14 32 32 32h48
c18 0 32 -14 32 -33v-331c0 -70 20 -99 66 -99c44 0 64 29 64 99v332c0 18 14 32 32 32h48c18 0 32 -14 32 -32zM80 734v39c0 18 14 32 32 32h41c18 0 32 -14 32 -32v-39c0 -18 -14 -32 -32 -32h-41c-18 0 -32 14 -32 32zM274 734v39c0 18 14 32 32 32h41
c18 0 32 -14 32 -32v-39c0 -18 -14 -32 -32 -32h-41c-18 0 -32 14 -32 32z" />
    <glyph glyph-name="asciitilde" unicode="~" horiz-adv-x="549" 
d="M396 428c0 20 11 30 33 30h42c22 0 32 -10 32 -30v-12c0 -126 -63 -185 -132 -185c-70 0 -103 42 -130 75c-13 16 -27 46 -54 46c-25 0 -34 -26 -34 -89c0 -21 -11 -30 -33 -30h-42c-22 0 -32 9 -32 30v12c0 125 63 185 132 185c70 0 104 -43 130 -76
c19 -24 33 -45 54 -45c25 0 34 25 34 89z" />
    <glyph glyph-name="zero.tab" 
d="M167 638v-452c0 -59 28 -85 67 -85c36 0 66 22 66 85v452c0 63 -30 86 -66 86c-40 0 -67 -26 -67 -86zM415 640v-456c0 -126 -77 -191 -181 -191c-99 0 -182 61 -182 191v456c0 129 81 192 182 192c99 0 181 -63 181 -192z" />
    <glyph glyph-name="one.tab" 
d="M176 135v481c0 13 -10 21 -24 21h-75c-18 0 -32 14 -32 32v44c0 18 14 32 32 32h41c37 0 51 5 57 30l6 26c4 16 16 26 35 26h42c18 0 33 -14 33 -32v-660c0 -13 9 -24 23 -24h76c18 0 32 -14 32 -32v-47c0 -18 -14 -32 -32 -32h-313c-18 0 -32 14 -32 32v47
c0 18 14 32 32 32h75c14 0 24 11 24 24z" />
    <glyph glyph-name="two.tab" 
d="M386 0h-304c-18 0 -32 14 -32 32v64c0 102 63 182 138 280l39 51c52 68 71 114 71 183v28c0 59 -28 86 -66 86c-40 0 -67 -26 -67 -86v-39c0 -18 -14 -32 -32 -32h-50c-18 0 -33 14 -33 32v47c0 124 82 186 182 186c96 0 181 -58 181 -184v-41c0 -95 -39 -171 -94 -244
l-55 -73c-63 -83 -82 -131 -82 -150v-7c1 -13 7 -21 23 -21h181c18 0 32 -14 32 -32v-48c0 -18 -14 -32 -32 -32z" />
    <glyph glyph-name="three.tab" 
d="M231 359h-39c-18 0 -32 14 -32 32v48c0 17 14 32 32 32h38c33 0 70 19 70 89v65c0 61 -18 99 -66 99c-56 0 -66 -45 -66 -107v-9c0 -22 -10 -41 -32 -41h-51c-18 0 -32 14 -32 32v47c0 120 75 186 181 186c108 0 181 -79 181 -184v-82c0 -58 -10 -99 -41 -131l-8 -8
c-6 -6 -8 -11 -8 -16s3 -9 8 -15l8 -9c31 -35 41 -76 41 -137v-74c0 -111 -72 -183 -182 -183c-97 0 -181 59 -181 185v57c0 18 14 32 32 32h51c23 0 32 -21 32 -42v-19c0 -57 8 -104 66 -104c38 0 67 26 67 86v71c0 77 -31 100 -69 100z" />
    <glyph glyph-name="four.tab" 
d="M374 156v-124c0 -18 -14 -32 -32 -32h-50c-18 0 -33 14 -33 32v124c0 13 -9 23 -23 23h-164c-30 0 -37 19 -37 40v24c0 19 4 47 15 97l18 81c27 120 55 246 83 367c7 31 15 44 40 44h45c19 0 34 -10 34 -31c0 -18 -4 -44 -67 -304l-30 -124c-9 -35 -13 -57 -13 -67
c1 -13 10 -21 25 -21h48c13 0 26 3 26 24v81c0 22 6 46 33 46h50c26 0 32 -22 32 -46v-80c0 -13 9 -25 23 -25h4c21 0 38 -9 38 -32v-42c0 -23 -17 -32 -38 -32h-3c-14 0 -24 -10 -24 -23z" />
    <glyph glyph-name="five.tab" 
d="M165 225v-19c0 -58 8 -105 67 -105c38 0 66 24 66 85v113c0 79 -17 111 -66 111c-15 0 -27 -4 -39 -9l-16 -7c-20 -9 -29 -12 -49 -12h-14c-23 0 -42 15 -42 42v355c0 22 6 46 32 46h252c18 0 32 -14 32 -32v-48c0 -18 -14 -32 -32 -32h-147c-13 0 -23 -10 -23 -23v-80
c0 -25 -1 -47 -1 -65c0 -25 2 -37 22 -37c10 0 23 4 48 4c91 0 158 -63 158 -160v-176c0 -120 -80 -183 -181 -183c-100 0 -182 62 -182 185v57c0 18 14 32 32 32h51c23 0 32 -21 32 -42z" />
    <glyph glyph-name="six.tab" 
d="M167 349v-163c0 -59 28 -85 67 -85c36 0 66 22 66 85v111c0 51 -34 75 -68 75h-42c-13 0 -23 -10 -23 -23zM300 599v39c0 61 -28 86 -66 86c-39 0 -67 -26 -67 -86v-137c0 -13 9 -23 23 -23h44c109 0 181 -65 181 -202v-98c0 -123 -82 -185 -182 -185
c-97 0 -181 59 -181 183v472c0 115 77 184 181 184c97 0 182 -58 182 -186v-47c0 -18 -14 -32 -32 -32h-50c-18 0 -33 14 -33 32z" />
    <glyph glyph-name="seven.tab" 
d="M405 793v-51c0 -20 -5 -55 -31 -168l-123 -542c-5 -21 -17 -32 -37 -32h-48c-18 0 -33 13 -33 32c0 21 24 126 49 235l38 164c21 91 58 237 58 264c0 12 -9 18 -24 18h-200c-18 0 -33 14 -33 32v47c0 18 15 33 33 33h319c18 0 32 -14 32 -32z" />
    <glyph glyph-name="eight.tab" 
d="M234 363c-34 0 -67 -22 -67 -71v-119c0 -49 33 -71 67 -71c32 0 66 19 66 71v119c0 52 -34 71 -66 71zM234 722c-35 0 -67 -22 -67 -71v-112c0 -49 32 -71 66 -71c35 0 67 20 67 71v112c0 48 -30 71 -66 71zM233 -7c-98 0 -182 66 -182 183v82c0 61 9 105 43 138l8 7
c6 6 8 11 8 16s-2 11 -9 17l-7 7c-39 36 -43 88 -43 159v46c0 119 83 184 183 184c96 0 182 -61 182 -184v-46c0 -71 -5 -123 -43 -159l-7 -7c-7 -6 -9 -12 -9 -17s2 -10 8 -16l8 -7c35 -33 43 -77 43 -138v-82c0 -112 -76 -183 -183 -183z" />
    <glyph glyph-name="nine.tab" 
d="M300 475v164c0 59 -28 85 -67 85c-36 0 -66 -22 -66 -85v-112c0 -51 34 -75 68 -75h42c13 0 23 10 23 23zM167 226v-39c0 -61 28 -86 66 -86c39 0 67 26 67 86v137c0 13 -9 23 -23 23h-44c-109 0 -181 65 -181 202v98c0 123 82 185 182 185c97 0 181 -59 181 -183v-472
c0 -115 -77 -184 -181 -184c-97 0 -182 58 -182 186v47c0 18 14 32 32 32h50c18 0 33 -14 33 -32z" />
    <glyph glyph-name="currency" unicode="&#xa4;" horiz-adv-x="457" 
d="M228 239c-17 0 -33 2 -44 6l-11 3c-3 1 -6 1 -8 1c-8 0 -18 -6 -24 -12l-31 -30c-6 -5 -12 -8 -17 -8c-6 0 -11 3 -17 8l-16 15c-7 7 -13 14 -13 21c0 29 51 48 51 71c0 12 -14 37 -14 67v30c0 18 0 31 1 44c3 26 13 47 13 58c0 10 -8 17 -15 24l-28 27c-6 6 -8 14 -8 20
c0 8 6 14 13 21l16 15c6 5 11 8 17 8c5 0 11 -3 17 -8l38 -36c4 -4 11 -7 17 -7c3 0 32 12 63 12s60 -12 63 -12c6 0 13 3 17 7l38 36c6 5 12 8 17 8c6 0 11 -3 17 -8l16 -15c7 -7 13 -13 13 -21c0 -6 -2 -14 -8 -20l-28 -27c-7 -7 -15 -14 -15 -24c0 -11 10 -32 13 -58
c1 -13 1 -26 1 -44v-30c0 -30 -14 -55 -14 -67c0 -23 51 -42 51 -71c0 -7 -6 -14 -13 -21l-16 -15c-6 -5 -11 -8 -17 -8c-5 0 -11 3 -17 8l-31 30c-6 6 -16 12 -24 12c-2 0 -5 0 -8 -1l-11 -3c-11 -4 -27 -6 -44 -6zM228 501c-23 0 -49 -15 -49 -45v-84c0 -31 26 -45 49 -45
s49 14 49 45v84c0 30 -26 45 -49 45z" />
    <glyph glyph-name="uni00A0" unicode="&#xa0;" horiz-adv-x="237" 
 />
    <glyph glyph-name="uni1E9E" unicode="&#x1e9e;" horiz-adv-x="472" 
d="M436 206c0 -120 -49 -207 -163 -207c-20 0 -34 13 -34 31v51c0 14 8 29 23 31c39 4 58 21 58 60v127c0 44 -18 63 -53 72l-4 1c-18 4 -25 17 -25 37c0 12 3 27 7 43l52 206c5 18 7 31 7 40c0 10 -4 20 -25 20h-37c-40 0 -74 -21 -74 -83v-603c0 -18 -14 -32 -32 -32h-50
c-18 0 -33 14 -33 32v600c0 128 80 193 184 193h131c35 0 61 -18 61 -58c0 -9 -1 -18 -4 -29l-65 -255c-2 -8 -3 -15 -3 -18c0 -10 5 -17 12 -21c56 -28 67 -91 67 -184v-54z" />
    <glyph glyph-name="onehalf" unicode="&#xbd;" horiz-adv-x="936" 
d="M260 50l208 751c5 19 15 26 32 26h32c19 0 28 -9 28 -27c-1 -7 -2 -20 -7 -37l-206 -739c-6 -20 -15 -26 -32 -26h-31c-19 0 -28 9 -28 27c0 5 0 12 4 25zM840 408c0 -43 -21 -101 -54 -141l-55 -67c-38 -47 -56 -66 -55 -82c0 -13 9 -23 23 -23h99c23 0 41 -8 41 -31
v-25c0 -26 -10 -39 -30 -39h-226c-18 0 -30 13 -30 37v9c0 70 38 130 82 181l50 58c33 39 58 75 58 112v6c0 29 -13 56 -46 56c-23 0 -44 -16 -46 -48v-14c0 -21 -13 -34 -31 -34h-34c-19 0 -31 14 -31 31v9c0 89 61 147 141 147c79 0 144 -53 144 -142zM149 307v341
c0 13 -10 23 -23 23h-34c-18 0 -29 13 -29 27v34c0 15 11 27 29 27h11c32 0 39 6 46 31l5 18c4 14 14 24 30 24h30c20 0 31 -14 31 -31v-480c0 -23 -6 -45 -31 -45h-34c-18 0 -31 13 -31 31z" />
    <glyph glyph-name="thorn" unicode="&#xfe;" horiz-adv-x="455" 
d="M294 184v253c0 68 -21 99 -65 99c-42 0 -65 -26 -65 -99v-239c0 -69 19 -99 65 -99c37 0 65 25 65 85zM406 456v-277c0 -123 -77 -182 -160 -182c-20 0 -43 6 -60 6c-12 0 -23 -9 -23 -22c0 -10 1 -14 1 -25v-89c0 -18 -14 -32 -32 -32h-48c-18 0 -32 14 -32 32v926
c0 18 14 32 32 32h48c18 0 32 -14 32 -32v-112c0 -12 -1 -16 -1 -27c0 -12 10 -22 23 -22c18 0 39 6 61 6c86 0 159 -64 159 -182z" />
    <glyph glyph-name="apple" unicode="&#xf8ff;" horiz-adv-x="675" 
d="M198 352l264 -154c6 -3 9 -6 9 -10s-3 -6 -9 -9l-114 -66c-4 -2 -7 -3 -10 -3s-7 1 -10 3l-301 173c-3 2 -5 7 -5 11v151c0 9 3 16 11 21l290 168c4 2 10 3 15 3s10 -1 14 -3l289 -166c8 -5 12 -14 12 -28v-127c0 -7 -2 -10 -6 -10c-2 0 -5 1 -8 3l-278 160
c-10 6 -17 7 -22 7c-6 0 -14 -2 -22 -7l-119 -69c-12 -7 -16 -13 -16 -24c0 -10 6 -18 16 -24zM477 214l-264 154c-6 3 -9 6 -9 10s3 6 9 9l114 66c4 2 7 3 10 3s7 -1 10 -3l301 -173c3 -2 5 -7 5 -11v-151c0 -9 -3 -16 -11 -21l-290 -168c-4 -2 -10 -3 -15 -3s-10 1 -14 3
l-289 166c-8 5 -12 14 -12 28v127c0 7 2 10 6 10c2 0 5 -1 8 -3l278 -160c10 -6 17 -7 22 -7c6 0 14 2 22 7l119 69c12 7 16 13 16 24c0 10 -6 18 -16 24z" />
    <glyph glyph-name="A.alt" 
d="M415 648v-604c0 -38 -20 -48 -42 -48c-10 0 -17 3 -23 6l-11 6c-8 4 -16 7 -25 7c-42 0 -65 -20 -98 -20c-94 0 -164 68 -164 189v93c0 128 82 191 182 191h43c14 0 23 10 23 23v134c0 61 -18 99 -66 99c-56 0 -67 -45 -67 -107v-9c0 -22 -10 -41 -32 -41h-51
c-18 0 -32 14 -32 32v47c0 120 76 186 182 186c108 0 181 -79 181 -184zM300 186v153c0 14 -9 22 -23 22h-41c-34 0 -69 -24 -69 -90v-85c0 -46 16 -85 67 -85c38 0 66 24 66 85z" />
    <glyph glyph-name="E.alt" 
d="M190 468h87c13 0 23 9 23 23v147c0 61 -28 86 -66 86c-39 0 -67 -26 -67 -86v-147c0 -13 9 -23 23 -23zM383 361h-193c-14 0 -23 -8 -23 -22v-153c0 -55 24 -85 67 -85c36 0 66 22 66 85v49c0 18 15 32 33 32h50c18 0 32 -14 32 -32v-51c0 -130 -83 -191 -181 -191
c-99 0 -182 61 -182 191v456c0 129 82 192 182 192c99 0 181 -63 181 -192v-247c0 -18 -14 -32 -32 -32z" />
    <glyph glyph-name="Adieresis.alt" 
d="M415 648v-604c0 -38 -20 -48 -42 -48c-10 0 -17 3 -23 6l-11 6c-8 4 -16 7 -25 7c-42 0 -65 -20 -98 -20c-94 0 -164 68 -164 189v93c0 128 82 191 182 191h43c14 0 23 10 23 23v134c0 61 -18 99 -66 99c-56 0 -67 -45 -67 -107v-9c0 -22 -10 -41 -32 -41h-51
c-18 0 -32 14 -32 32v47c0 120 76 186 182 186c108 0 181 -79 181 -184zM300 186v153c0 14 -9 22 -23 22h-41c-34 0 -69 -24 -69 -90v-85c0 -46 16 -85 67 -85c38 0 66 24 66 85zM84 910v40c0 18 14 32 32 32h41c18 0 32 -14 32 -32v-40c0 -18 -14 -32 -32 -32h-41
c-18 0 -32 14 -32 32zM278 910v40c0 18 14 32 32 32h41c18 0 32 -14 32 -32v-40c0 -18 -14 -32 -32 -32h-41c-18 0 -32 14 -32 32z" />
    <glyph glyph-name="Aring.alt" 
d="M415 648v-604c0 -38 -20 -48 -42 -48c-10 0 -17 3 -23 6l-11 6c-8 4 -16 7 -25 7c-42 0 -65 -20 -98 -20c-94 0 -164 68 -164 189v93c0 128 82 191 182 191h43c14 0 23 10 23 23v134c0 61 -18 99 -66 99c-56 0 -67 -45 -67 -107v-9c0 -22 -10 -41 -32 -41h-51
c-18 0 -32 14 -32 32v47c0 120 76 186 182 186c108 0 181 -79 181 -184zM300 186v153c0 14 -9 22 -23 22h-41c-34 0 -69 -24 -69 -90v-85c0 -46 16 -85 67 -85c38 0 66 24 66 85zM203 940c0 -17 14 -31 31 -31s31 14 31 31s-14 31 -31 31s-31 -14 -31 -31zM151 940
c0 46 37 82 83 82s83 -36 83 -82s-37 -81 -83 -81s-83 35 -83 81z" />
    <glyph glyph-name="Eacute.alt" 
d="M190 468h87c13 0 23 9 23 23v147c0 61 -28 86 -66 86c-39 0 -67 -26 -67 -86v-147c0 -13 9 -23 23 -23zM383 361h-193c-14 0 -23 -8 -23 -22v-153c0 -55 24 -85 67 -85c36 0 66 22 66 85v49c0 18 15 32 33 32h50c18 0 32 -14 32 -32v-51c0 -130 -83 -191 -181 -191
c-99 0 -182 61 -182 191v456c0 129 82 192 182 192c99 0 181 -63 181 -192v-247c0 -18 -14 -32 -32 -32zM325 963l-118 -86c-10 -7 -20 -11 -27 -11c-16 0 -27 11 -27 25c0 6 2 11 7 18l48 77c12 20 23 25 44 25h60c17 0 27 -12 27 -24c0 -9 -3 -16 -14 -24z" />
    <glyph glyph-name="AE.alt" horiz-adv-x="716" 
d="M438 468h87c13 0 23 9 23 23v147c0 61 -28 86 -66 86c-39 0 -67 -26 -67 -86v-147c0 -13 9 -23 23 -23zM300 186v153c0 14 -9 22 -23 22h-41c-34 0 -69 -24 -69 -90v-85c0 -46 16 -85 67 -85c38 0 66 24 66 85zM52 184v93c0 128 82 191 182 191h43c14 0 23 10 23 23v134
c0 61 -18 99 -66 99c-56 0 -67 -45 -67 -107v-9c0 -22 -10 -41 -32 -41h-51c-18 0 -32 14 -32 32v47c0 120 76 186 182 186c39 0 71 -10 98 -30l7 -6c6 -5 11 -8 18 -8c6 0 11 3 17 8l8 6c27 20 61 30 100 30c99 0 181 -63 181 -192v-247c0 -18 -14 -32 -32 -32h-193
c-14 0 -23 -8 -23 -22v-153c0 -55 24 -85 67 -85c36 0 66 22 66 85v49c0 18 15 32 33 32h50c18 0 32 -14 32 -32v-50c0 -129 -82 -192 -181 -192c-39 0 -73 10 -100 30l-8 6c-6 5 -11 8 -17 8c-7 0 -12 -3 -18 -8l-7 -6c-27 -20 -59 -30 -98 -30c-106 0 -182 71 -182 191z
" />
    <glyph glyph-name="Agrave.alt" 
d="M415 648v-604c0 -38 -20 -48 -42 -48c-10 0 -17 3 -23 6l-11 6c-8 4 -16 7 -25 7c-42 0 -65 -20 -98 -20c-94 0 -164 68 -164 189v93c0 128 82 191 182 191h43c14 0 23 10 23 23v134c0 61 -18 99 -66 99c-56 0 -67 -45 -67 -107v-9c0 -22 -10 -41 -32 -41h-51
c-18 0 -32 14 -32 32v47c0 120 76 186 182 186c108 0 181 -79 181 -184zM300 186v153c0 14 -9 22 -23 22h-41c-34 0 -69 -24 -69 -90v-85c0 -46 16 -85 67 -85c38 0 66 24 66 85zM249 878l-122 87c-9 7 -11 14 -11 22c0 12 10 24 27 24h58c21 0 32 -5 44 -24l51 -78
c5 -7 7 -12 7 -17c0 -14 -11 -26 -27 -26c-7 0 -17 4 -27 12z" />
    <glyph glyph-name="Atilde.alt" 
d="M415 648v-604c0 -38 -20 -48 -42 -48c-10 0 -17 3 -23 6l-11 6c-8 4 -16 7 -25 7c-42 0 -65 -20 -98 -20c-94 0 -164 68 -164 189v93c0 128 82 191 182 191h43c14 0 23 10 23 23v134c0 61 -18 99 -66 99c-56 0 -67 -45 -67 -107v-9c0 -22 -10 -41 -32 -41h-51
c-18 0 -32 14 -32 32v47c0 120 76 186 182 186c108 0 181 -79 181 -184zM300 186v153c0 14 -9 22 -23 22h-41c-34 0 -69 -24 -69 -90v-85c0 -46 16 -85 67 -85c38 0 66 24 66 85zM212 899l-8 7c-8 6 -12 10 -21 10s-17 -8 -20 -15l-3 -6c-5 -11 -15 -18 -28 -18
c-14 0 -28 10 -28 27c0 45 45 86 86 86c23 0 44 -5 63 -21c12 -10 21 -17 31 -17c11 0 16 7 20 15l3 6c5 10 15 18 28 18c14 0 28 -10 28 -27c0 -46 -45 -87 -84 -87c-25 0 -46 6 -67 22z" />
    <glyph glyph-name="OE.alt" horiz-adv-x="716" 
d="M438 468h87c13 0 23 9 23 23v147c0 61 -28 86 -66 86c-39 0 -67 -26 -67 -86v-147c0 -13 9 -23 23 -23zM167 617v-431c0 -46 16 -85 67 -85c38 0 66 24 66 85v439c0 61 -18 99 -66 99c-56 0 -67 -45 -67 -107zM52 184v462c0 120 76 186 182 186c39 0 71 -10 98 -30l7 -6
c6 -5 11 -8 18 -8c6 0 11 3 17 8l8 6c27 20 61 30 100 30c99 0 181 -63 181 -192v-247c0 -18 -14 -32 -32 -32h-193c-14 0 -23 -8 -23 -22v-153c0 -55 24 -85 67 -85c36 0 66 22 66 85v49c0 18 15 32 33 32h50c18 0 32 -14 32 -32v-50c0 -129 -82 -192 -181 -192
c-39 0 -73 10 -100 30l-8 6c-6 5 -11 8 -17 8c-7 0 -12 -3 -18 -8l-7 -6c-27 -20 -59 -30 -98 -30c-106 0 -182 71 -182 191z" />
    <glyph glyph-name="Acircumflex.alt" 
d="M415 648v-604c0 -38 -20 -48 -42 -48c-10 0 -17 3 -23 6l-11 6c-8 4 -16 7 -25 7c-42 0 -65 -20 -98 -20c-94 0 -164 68 -164 189v93c0 128 82 191 182 191h43c14 0 23 10 23 23v134c0 61 -18 99 -66 99c-56 0 -67 -45 -67 -107v-9c0 -22 -10 -41 -32 -41h-51
c-18 0 -32 14 -32 32v47c0 120 76 186 182 186c108 0 181 -79 181 -184zM300 186v153c0 14 -9 22 -23 22h-41c-34 0 -69 -24 -69 -90v-85c0 -46 16 -85 67 -85c38 0 66 24 66 85zM234 917c-16 0 -25 -10 -52 -29l-17 -12c-9 -6 -16 -8 -22 -8c-14 0 -26 12 -26 26
c0 7 2 13 11 23l62 73c12 14 24 28 44 28s32 -14 44 -28l62 -73c9 -10 11 -16 11 -23c0 -14 -12 -26 -26 -26c-6 0 -13 2 -22 8l-17 12c-27 19 -36 29 -52 29z" />
    <glyph glyph-name="Ecircumflex.alt" 
d="M190 468h87c13 0 23 9 23 23v147c0 61 -28 86 -66 86c-39 0 -67 -26 -67 -86v-147c0 -13 9 -23 23 -23zM383 361h-193c-14 0 -23 -8 -23 -22v-153c0 -55 24 -85 67 -85c36 0 66 22 66 85v49c0 18 15 32 33 32h50c18 0 32 -14 32 -32v-51c0 -130 -83 -191 -181 -191
c-99 0 -182 61 -182 191v456c0 129 82 192 182 192c99 0 181 -63 181 -192v-247c0 -18 -14 -32 -32 -32zM234 917c-16 0 -25 -10 -52 -29l-17 -12c-9 -6 -16 -8 -22 -8c-14 0 -26 12 -26 26c0 7 2 13 11 23l62 73c12 14 24 28 44 28s32 -14 44 -28l62 -73
c9 -10 11 -16 11 -23c0 -14 -12 -26 -26 -26c-6 0 -13 2 -22 8l-17 12c-27 19 -36 29 -52 29z" />
    <glyph glyph-name="Aacute.alt" 
d="M415 648v-604c0 -38 -20 -48 -42 -48c-10 0 -17 3 -23 6l-11 6c-8 4 -16 7 -25 7c-42 0 -65 -20 -98 -20c-94 0 -164 68 -164 189v93c0 128 82 191 182 191h43c14 0 23 10 23 23v134c0 61 -18 99 -66 99c-56 0 -67 -45 -67 -107v-9c0 -22 -10 -41 -32 -41h-51
c-18 0 -32 14 -32 32v47c0 120 76 186 182 186c108 0 181 -79 181 -184zM300 186v153c0 14 -9 22 -23 22h-41c-34 0 -69 -24 -69 -90v-85c0 -46 16 -85 67 -85c38 0 66 24 66 85zM325 963l-118 -86c-10 -7 -20 -11 -27 -11c-16 0 -27 11 -27 25c0 6 2 11 7 18l48 77
c12 20 23 25 44 25h60c17 0 27 -12 27 -24c0 -9 -3 -16 -14 -24z" />
    <glyph glyph-name="Edieresis.alt" 
d="M190 468h87c13 0 23 9 23 23v147c0 61 -28 86 -66 86c-39 0 -67 -26 -67 -86v-147c0 -13 9 -23 23 -23zM383 361h-193c-14 0 -23 -8 -23 -22v-153c0 -55 24 -85 67 -85c36 0 66 22 66 85v49c0 18 15 32 33 32h50c18 0 32 -14 32 -32v-51c0 -130 -83 -191 -181 -191
c-99 0 -182 61 -182 191v456c0 129 82 192 182 192c99 0 181 -63 181 -192v-247c0 -18 -14 -32 -32 -32zM84 910v40c0 18 14 32 32 32h41c18 0 32 -14 32 -32v-40c0 -18 -14 -32 -32 -32h-41c-18 0 -32 14 -32 32zM278 910v40c0 18 14 32 32 32h41c18 0 32 -14 32 -32v-40
c0 -18 -14 -32 -32 -32h-41c-18 0 -32 14 -32 32z" />
    <glyph glyph-name="Egrave.alt" 
d="M190 468h87c13 0 23 9 23 23v147c0 61 -28 86 -66 86c-39 0 -67 -26 -67 -86v-147c0 -13 9 -23 23 -23zM383 361h-193c-14 0 -23 -8 -23 -22v-153c0 -55 24 -85 67 -85c36 0 66 22 66 85v49c0 18 15 32 33 32h50c18 0 32 -14 32 -32v-51c0 -130 -83 -191 -181 -191
c-99 0 -182 61 -182 191v456c0 129 82 192 182 192c99 0 181 -63 181 -192v-247c0 -18 -14 -32 -32 -32zM249 878l-122 87c-9 7 -11 14 -11 22c0 12 10 24 27 24h58c21 0 32 -5 44 -24l51 -78c5 -7 7 -12 7 -17c0 -14 -11 -26 -27 -26c-7 0 -17 4 -27 12z" />
    <glyph glyph-name="Amacron.alt" 
d="M415 648v-604c0 -38 -20 -48 -42 -48c-10 0 -17 3 -23 6l-11 6c-8 4 -16 7 -25 7c-42 0 -65 -20 -98 -20c-94 0 -164 68 -164 189v93c0 128 82 191 182 191h43c14 0 23 10 23 23v134c0 61 -18 99 -66 99c-56 0 -67 -45 -67 -107v-9c0 -22 -10 -41 -32 -41h-51
c-18 0 -32 14 -32 32v47c0 120 76 186 182 186c108 0 181 -79 181 -184zM300 186v153c0 14 -9 22 -23 22h-41c-34 0 -69 -24 -69 -90v-85c0 -46 16 -85 67 -85c38 0 66 24 66 85zM358 940v-12c0 -23 -17 -28 -40 -28h-178c-20 0 -31 11 -31 28v12c0 19 12 28 31 28h178
c23 0 40 -4 40 -28z" />
    <glyph glyph-name="Abreve.alt" 
d="M415 648v-604c0 -38 -20 -48 -42 -48c-10 0 -17 3 -23 6l-11 6c-8 4 -16 7 -25 7c-42 0 -65 -20 -98 -20c-94 0 -164 68 -164 189v93c0 128 82 191 182 191h43c14 0 23 10 23 23v134c0 61 -18 99 -66 99c-56 0 -67 -45 -67 -107v-9c0 -22 -10 -41 -32 -41h-51
c-18 0 -32 14 -32 32v47c0 120 76 186 182 186c108 0 181 -79 181 -184zM300 186v153c0 14 -9 22 -23 22h-41c-34 0 -69 -24 -69 -90v-85c0 -46 16 -85 67 -85c38 0 66 24 66 85zM234 869c-55 0 -105 32 -105 95c0 28 4 53 32 53c8 0 14 -2 19 -6c7 -5 11 -13 11 -24v-5
c0 -24 20 -40 43 -40c22 0 43 16 43 40v5c0 9 3 17 8 22s12 8 22 8c28 0 32 -25 32 -53c0 -63 -48 -95 -105 -95z" />
    <glyph glyph-name="Aogonek.alt" 
d="M300 186v153c0 14 -9 22 -23 22h-41c-34 0 -69 -24 -69 -90v-85c0 -46 16 -85 67 -85c38 0 66 24 66 85zM223 -7c-94 0 -171 70 -171 191v93c0 128 82 191 182 191h43c14 0 23 10 23 23v134c0 61 -18 99 -66 99c-56 0 -66 -45 -66 -107v-9c0 -22 -10 -41 -32 -41h-51
c-18 0 -32 14 -32 32v47c0 120 75 186 181 186c108 0 181 -79 181 -184v-617c0 -16 -5 -36 -18 -48l-40 -36c-16 -14 -20 -20 -20 -31c0 -14 12 -22 24 -22c13 0 21 12 39 12c12 0 27 -9 27 -27c0 -26 -43 -50 -92 -50c-51 0 -85 22 -85 61c0 24 12 41 29 55l18 14
c14 11 19 18 19 27s-6 17 -20 17c-10 0 -21 -4 -37 -7c-10 -2 -22 -3 -36 -3z" />
    <glyph glyph-name="Emacron.alt" 
d="M190 468h87c13 0 23 9 23 23v147c0 61 -28 86 -66 86c-39 0 -67 -26 -67 -86v-147c0 -13 9 -23 23 -23zM383 361h-193c-14 0 -23 -8 -23 -22v-153c0 -55 24 -85 67 -85c36 0 66 22 66 85v49c0 18 15 32 33 32h50c18 0 32 -14 32 -32v-51c0 -130 -83 -191 -181 -191
c-99 0 -182 61 -182 191v456c0 129 82 192 182 192c99 0 181 -63 181 -192v-247c0 -18 -14 -32 -32 -32zM358 940v-12c0 -23 -17 -28 -40 -28h-178c-20 0 -31 11 -31 28v12c0 19 12 28 31 28h178c23 0 40 -4 40 -28z" />
    <glyph glyph-name="Ebreve.alt" 
d="M190 468h87c13 0 23 9 23 23v147c0 61 -28 86 -66 86c-39 0 -67 -26 -67 -86v-147c0 -13 9 -23 23 -23zM383 361h-193c-14 0 -23 -8 -23 -22v-153c0 -55 24 -85 67 -85c36 0 66 22 66 85v49c0 18 15 32 33 32h50c18 0 32 -14 32 -32v-51c0 -130 -83 -191 -181 -191
c-99 0 -182 61 -182 191v456c0 129 82 192 182 192c99 0 181 -63 181 -192v-247c0 -18 -14 -32 -32 -32zM234 869c-55 0 -105 32 -105 95c0 28 4 53 32 53c8 0 14 -2 19 -6c7 -5 11 -13 11 -24v-5c0 -24 20 -40 43 -40c22 0 43 16 43 40v5c0 9 3 17 8 22s12 8 22 8
c28 0 32 -25 32 -53c0 -63 -48 -95 -105 -95z" />
    <glyph glyph-name="Edotaccent.alt" 
d="M190 468h87c13 0 23 9 23 23v147c0 61 -28 86 -66 86c-39 0 -67 -26 -67 -86v-147c0 -13 9 -23 23 -23zM383 361h-193c-14 0 -23 -8 -23 -22v-153c0 -55 24 -85 67 -85c36 0 66 22 66 85v49c0 18 15 32 33 32h50c18 0 32 -14 32 -32v-51c0 -130 -83 -191 -181 -191
c-99 0 -182 61 -182 191v456c0 129 82 192 182 192c99 0 181 -63 181 -192v-247c0 -18 -14 -32 -32 -32zM176 907v49c0 18 14 32 32 32h51c18 0 32 -14 32 -32v-49c0 -18 -14 -32 -32 -32h-51c-18 0 -32 14 -32 32z" />
    <glyph glyph-name="Eogonek.alt" 
d="M190 468h87c13 0 23 9 23 23v147c0 61 -28 86 -66 86c-39 0 -67 -26 -67 -86v-147c0 -13 9 -23 23 -23zM226 -6c-95 0 -174 60 -174 190v456c0 129 82 192 182 192c99 0 181 -63 181 -192v-247c0 -18 -14 -32 -32 -32h-193c-14 0 -23 -8 -23 -22v-153
c0 -55 24 -85 67 -85c36 0 66 22 66 85v49c0 18 15 32 33 32h50c18 0 32 -14 32 -32v-55c0 -53 -10 -91 -45 -143l-65 -96c-7 -11 -9 -14 -9 -23c0 -13 10 -22 22 -22c14 0 21 16 38 16c11 0 27 -8 27 -26c0 -31 -44 -56 -92 -56c-52 0 -85 25 -85 58c0 49 47 57 47 83
c0 14 -9 22 -27 23z" />
    <glyph glyph-name="Ecaron.alt" 
d="M190 468h87c13 0 23 9 23 23v147c0 61 -28 86 -66 86c-39 0 -67 -26 -67 -86v-147c0 -13 9 -23 23 -23zM383 361h-193c-14 0 -23 -8 -23 -22v-153c0 -55 24 -85 67 -85c36 0 66 22 66 85v49c0 18 15 32 33 32h50c18 0 32 -14 32 -32v-51c0 -130 -83 -191 -181 -191
c-99 0 -182 61 -182 191v456c0 129 82 192 182 192c99 0 181 -63 181 -192v-247c0 -18 -14 -32 -32 -32zM234 969c16 0 25 10 52 29l17 12c9 6 16 8 22 8c14 0 26 -12 26 -26c0 -7 -2 -13 -11 -23l-62 -73c-12 -14 -24 -28 -44 -28s-32 14 -44 28l-62 73
c-9 10 -11 16 -11 23c0 14 12 26 26 26c6 0 13 -2 22 -8l17 -12c27 -19 36 -29 52 -29z" />
    </font>
</defs>
</svg>
